<?xml version="1.0" standalone="no"?>
<!DOCTYPE svg PUBLIC "-//W3C//DTD SVG 1.1//EN" "http://www.w3.org/Graphics/SVG/1.1/DTD/svg11.dtd" >
<svg xmlns="http://www.w3.org/2000/svg">
<metadata>Generated by IcoMoon</metadata>
<defs>
<font id="premium-line-icons" horiz-adv-x="1024">
<font-face units-per-em="1024" ascent="1024" descent="0" />
<missing-glyph horiz-adv-x="1024" />
<glyph unicode="&#x20;" horiz-adv-x="194.56" d="" />
<glyph unicode="&#xe900;" glyph-name="3d-glasses" d="M1002.667 298.667h-362.667c-6.229 0-12.16 2.688-16.171 7.467l-111.829 130.432-111.829-130.475c-4.053-4.693-9.941-7.424-16.171-7.424h-362.667c-11.776 0-21.333 9.6-21.333 21.333v384c0 11.733 9.557 21.333 21.333 21.333h981.333c11.733 0 21.333-9.6 21.333-21.333v-384c0-11.733-9.6-21.333-21.333-21.333zM649.813 341.333h331.52v341.333h-938.667v-341.333h331.52l121.643 141.867c8.064 9.557 24.277 9.557 32.384 0l121.6-141.867zM344.747 384h-238.080c-11.776 0-21.333 9.6-21.333 21.333v213.333c0 11.733 9.557 21.333 21.333 21.333h341.333c5.675 0 11.179-2.347 15.147-6.315 3.968-4.011 6.229-9.557 6.187-15.147l-0.683-64c-0.043-4.309-1.365-8.277-3.755-11.776l-102.571-149.333c-3.968-5.973-10.539-9.429-17.579-9.429zM128 426.667h205.525l92.544 134.699 0.384 35.968h-298.453v-170.667zM917.333 384h-238.037c-7.040 0-13.611 3.456-17.579 9.259l-102.528 149.333c-2.432 3.499-3.755 7.68-3.755 11.819l-0.725 64c-0.043 5.675 2.176 11.221 6.187 15.189 4.011 3.925 9.429 6.4 15.104 6.4h341.333c11.733 0 21.333-9.6 21.333-21.333v-213.333c0-11.733-9.6-21.333-21.333-21.333zM690.517 426.667h205.483v170.667h-298.411l0.427-35.968 92.501-134.699z" />
<glyph unicode="&#xe901;" glyph-name="3d-glasses-2" d="M954.667 134.229h-314.667c-6.229 0-12.16 2.688-16.171 7.467l-91.563 106.837c-10.112 11.776-30.293 11.861-40.491-0.043l-91.563-106.795c-4.053-4.693-9.984-7.467-16.213-7.467h-314.667c-38.229 0-69.333 31.104-69.333 69.333v288c0 38.229 31.104 69.333 69.333 69.333h885.333c38.229 0 69.333-31.104 69.333-69.333v-288c0-38.229-31.104-69.333-69.333-69.333zM649.813 176.896h304.896c14.677 0 26.667 11.904 26.667 26.667v288c0 14.763-11.947 26.667-26.667 26.667h-885.376c-14.635 0-26.667-11.904-26.667-26.667v-288c0-14.763 11.947-26.667 26.667-26.667h304.896l85.205 99.371c26.411 30.805 78.891 30.72 105.259 0.043l85.12-99.413zM362.667 219.563h-256c-11.776 0-21.333 9.6-21.333 21.333v213.333c0 11.733 9.557 21.333 21.333 21.333h256c11.776 0 21.333-9.6 21.333-21.333v-213.333c0-11.733-9.557-21.333-21.333-21.333zM128 262.229h213.333v170.667h-213.333v-170.667zM917.333 219.563h-256c-11.733 0-21.333 9.6-21.333 21.333v213.333c0 11.733 9.6 21.333 21.333 21.333h256c11.776 0 21.333-9.6 21.333-21.333v-213.333c0-11.733-9.557-21.333-21.333-21.333zM682.667 262.229h213.333v170.667h-213.333v-170.667zM37.035 505.6c-4.565 0-9.173 1.451-13.056 4.48-9.301 7.168-11.008 20.48-3.755 29.909l222.549 286.421c23.467 32.768 86.955 86.741 156.16 52.267 50.133-25.088 86.571-62.933 97.408-101.248 6.272-22.187 3.84-43.093-7.040-60.672-11.264-18.176-29.269-28.16-51.2-27.52-21.291 0.512-42.624 10.496-58.88 23.723-36.48-64.427-103.083-178.773-103.083-178.773l-36.864 21.504c0 0 88.789 152.491 117.205 203.947 3.755 6.784 10.837 10.965 18.603 11.051h0.043c7.723 0 14.848-4.181 18.603-10.88 6.955-12.331 28.672-27.563 45.269-27.776 6.485 0.896 10.709 1.92 13.995 7.253 4.437 7.168 5.248 16.171 2.261 26.581-7.509 26.539-36.48 55.125-75.52 74.624-54.357 27.435-102.4-38.912-102.869-39.595l-223.019-287.104c-4.139-5.376-10.411-8.192-16.811-8.192zM990.421 505.6c-6.357 0-12.672 2.816-16.896 8.235l-222.549 286.421c-2.389 3.243-49.579 67.029-103.381 40.149-39.040-19.499-67.925-48.128-75.52-74.709-2.901-10.411-2.176-19.371 2.261-26.539 3.328-5.376 7.936-7.552 13.995-7.296 16.597 0.341 38.315 15.445 45.312 27.776 3.755 6.656 10.88 10.837 18.645 10.837v0c7.765-0.085 14.933-4.267 18.688-11.008 28.416-51.499 117.163-203.904 117.205-203.904l-36.864-21.504c0 0-66.603 114.432-103.083 178.731-16.299-13.269-37.632-23.253-58.88-23.723-21.504-0.555-39.979 9.301-51.2 27.477-10.88 17.579-13.312 38.528-7.040 60.672 10.88 38.315 47.275 76.16 97.408 101.248 69.12 34.56 132.693-19.499 156.629-52.907l222.080-285.653c7.211-9.429 5.547-22.699-3.755-29.909-3.883-2.987-8.533-4.395-13.056-4.395z" />
<glyph unicode="&#xe902;" glyph-name="a-z" d="M43.691 192c-2.261 0-4.48 0.341-6.741 1.067-11.221 3.755-17.109 15.915-13.355 27.008l201.259 597.333c2.901 8.747 11.093 14.592 20.267 14.592v0c9.173 0 17.195-5.931 20.224-14.592l201.216-597.333c3.755-11.264-2.261-23.253-13.397-27.008-11.093-3.755-23.253 2.261-27.008 13.355l-181.035 537.301-180.992-537.301c-3.2-8.832-11.52-14.421-20.437-14.421zM84.224 405.333h298.667v-42.667h-298.667v42.667zM980.224 192h-409.899c-7.936 0-15.104 4.437-18.773 11.435-3.797 6.997-3.2 15.403 1.195 22.101l386.987 563.883h-300.843c-11.733 0-21.333 9.6-21.333 21.333s9.6 21.333 21.333 21.333h341.333c7.936 0 15.147-4.437 18.816-11.435 3.755-7.083 3.243-15.445-1.237-22.101l-387.029-563.883h369.408c11.733 0 21.333-9.6 21.333-21.333s-9.557-21.333-21.291-21.333zM596.224 533.333h-170.667c-11.733 0-21.333 9.6-21.333 21.333s9.6 21.333 21.333 21.333h170.667c11.733 0 21.333-9.6 21.333-21.333s-9.6-21.333-21.333-21.333zM553.557 429.312c-4.736 0-9.6 1.579-13.483 4.736-9.088 7.509-10.411 20.907-2.987 29.995l74.24 90.496-74.24 90.453c-7.424 9.131-6.101 22.443 2.987 30.037 9.003 7.424 22.528 6.229 29.995-2.901l85.333-104.021c6.443-7.979 6.443-19.2 0-27.093l-85.333-104.021c-4.224-4.992-10.368-7.68-16.512-7.68z" />
<glyph unicode="&#xe903;" glyph-name="aa" d="M77.184 84.437c-2.091 0-4.181 0.299-6.229 0.939-11.264 3.413-17.664 15.275-14.208 26.581l245.76 812.416c3.456 11.264 15.275 17.664 26.624 14.208 11.307-3.413 17.664-15.317 14.208-26.624l-245.803-812.373c-2.773-9.216-11.221-15.147-20.352-15.147zM580.821 84.437c-9.173 0-17.621 5.973-20.437 15.189l-245.803 812.373c-3.413 11.307 2.944 23.125 14.208 26.624 11.349 3.456 23.168-2.987 26.624-14.208l245.803-812.416c3.413-11.264-2.901-23.168-14.208-26.581-2.048-0.683-4.139-0.981-6.187-0.981zM789.163 104.107c-30.891 0-61.056 5.035-86.741 16.427-44.032 19.584-68.523 56.107-69.163 102.955-0.427 35.925 12.459 66.176 38.315 89.899 79.445 73.003 258.688 56.363 266.368 55.637 11.691-1.109 20.309-11.605 19.157-23.296-1.152-11.648-11.349-20.437-23.339-19.2-1.621 0.213-167.936 15.573-233.344-44.544-16.811-15.403-24.789-34.432-24.491-57.899 0.427-30.421 14.763-51.584 43.861-64.555 62.763-27.861 167.851-6.784 209.749 30.123 8.875 7.765 22.315 6.912 30.123-1.963s6.912-22.272-1.92-30.123c-35.712-31.317-103.637-53.461-168.576-53.461zM498.944 296.192h-341.333c-11.776 0-21.333 9.557-21.333 21.333s9.557 21.333 21.333 21.333h341.333c11.733 0 21.333-9.557 21.333-21.333s-9.557-21.333-21.333-21.333zM946.944 104.192c-11.776 0-21.333 9.557-21.333 21.333v318.72c-14.592 22.229-33.792 35.755-58.539 41.259-78.848 17.579-182.827-52.096-183.936-52.736-9.728-6.571-22.997-4.096-29.568 5.717-6.613 9.771-4.139 22.997 5.675 29.525 4.864 3.328 120.149 80.597 216.96 59.179 38.059-8.448 68.011-30.592 89.003-65.835 1.963-3.285 3.029-7.083 3.029-10.923v-324.821c0.043-11.861-9.515-21.419-21.291-21.419z" />
<glyph unicode="&#xe904;" glyph-name="add" d="M512 21.333c-270.549 0-490.667 220.117-490.667 490.667s220.117 490.667 490.667 490.667 490.667-220.117 490.667-490.667-220.117-490.667-490.667-490.667zM512 960c-247.040 0-448-200.96-448-448s200.96-448 448-448 448 200.96 448 448-200.96 448-448 448zM704 490.667h-384c-11.776 0-21.333 9.557-21.333 21.333s9.557 21.333 21.333 21.333h384c11.733 0 21.333-9.557 21.333-21.333s-9.6-21.333-21.333-21.333zM512 298.667c-11.776 0-21.333 9.6-21.333 21.333v384c0 11.776 9.557 21.333 21.333 21.333s21.333-9.557 21.333-21.333v-384c0-11.733-9.557-21.333-21.333-21.333z" />
<glyph unicode="&#xe905;" glyph-name="add-bag" d="M736 533.333c-11.733 0-21.333 9.6-21.333 21.333v298.667c0 88.405-75.008 128-149.333 128h-42.667c-74.325 0-149.333-39.595-149.333-128v-298.667c0-11.733-9.6-21.333-21.333-21.333s-21.333 9.6-21.333 21.333v298.667c0 100.48 79.019 170.667 192 170.667h42.667c112.981 0 192-70.187 192-170.667v-298.667c0-11.733-9.6-21.333-21.333-21.333zM629.333 0h-576c-6.869 0-13.355 3.285-17.237 8.875-4.096 5.547-5.163 12.715-2.987 19.2l213.333 640c2.901 8.704 11.136 14.592 20.309 14.592h554.667c9.344 0 17.493-6.016 20.437-14.848l89.173-278.144c3.584-11.221-2.688-23.211-13.824-26.837-11.179-3.499-23.253 2.645-26.837 13.824l-84.437 263.253h-523.947l-199.083-597.333h546.432c11.733 0 21.333-9.643 21.333-21.333s-9.6-21.248-21.333-21.248zM864 64c-11.733 0-21.333 9.6-21.333 21.333v213.333c0 11.733 9.6 21.333 21.333 21.333s21.333-9.6 21.333-21.333v-213.333c0-11.733-9.6-21.333-21.333-21.333zM970.667 170.667h-213.333c-11.733 0-21.333 9.6-21.333 21.333s9.6 21.333 21.333 21.333h213.333c11.733 0 21.333-9.6 21.333-21.333s-9.6-21.333-21.333-21.333z" />
<glyph unicode="&#xe906;" glyph-name="add-basket" d="M981.333 458.667h-938.667c-11.776 0-21.333 9.6-21.333 21.333s9.557 21.333 21.333 21.333h938.667c11.733 0 21.333-9.6 21.333-21.333s-9.6-21.333-21.333-21.333zM810.667 32h-597.333c-10.069 0-18.773 7.083-20.864 16.896l-85.333 405.333c-2.432 11.563 4.949 22.784 16.469 25.301 11.563 2.261 22.869-4.907 25.259-16.555l81.792-388.437h562.688l81.835 388.437c2.432 11.563 13.653 19.029 25.259 16.555 11.52-2.517 18.859-13.739 16.469-25.301l-85.333-405.333c-2.176-9.813-10.837-16.896-20.907-16.896zM213.333 480c-5.461 0-10.923 2.091-15.104 6.229-8.32 8.235-8.32 21.845 0 30.165l170.667 170.667c8.32 8.235 21.845 8.235 30.165 0 8.32-8.32 8.32-21.931 0-30.165l-170.667-170.667c-4.139-4.139-9.6-6.229-15.061-6.229zM810.667 480c-5.461 0-10.923 2.091-15.104 6.229l-170.667 170.667c-8.32 8.235-8.32 21.845 0 30.165 8.277 8.235 21.845 8.235 30.165 0l170.667-170.667c8.277-8.32 8.277-21.931 0-30.165-4.139-4.139-9.6-6.229-15.061-6.229zM832 736c-11.733 0-21.333 9.6-21.333 21.333v213.333c0 11.733 9.6 21.333 21.333 21.333s21.333-9.6 21.333-21.333v-213.333c0-11.733-9.6-21.333-21.333-21.333zM938.667 842.667h-213.333c-11.733 0-21.333 9.6-21.333 21.333s9.6 21.333 21.333 21.333h213.333c11.733 0 21.333-9.6 21.333-21.333s-9.6-21.333-21.333-21.333z" />
<glyph unicode="&#xe907;" glyph-name="add-cart" d="M846.208 245.376h-469.333c-8.789 0-16.683 5.419-19.883 13.568l-177.237 455.765h-94.421v-42.667c0-11.733-9.557-21.333-21.333-21.333-11.733 0-21.333 9.6-21.333 21.333v64c0 11.733 9.6 21.333 21.333 21.333h130.432c8.747 0 16.683-5.419 19.883-13.568l177.195-455.765h440.021l98.987 259.883-592.043 81.664c-11.648 1.579-19.883 12.373-18.261 24.021 1.579 11.563 12.032 19.584 24.021 18.219l618.667-85.333c6.4-0.896 12.117-4.608 15.403-10.24 3.328-5.589 3.925-12.373 1.579-18.475l-113.792-298.667c-3.029-8.277-11.008-13.739-19.883-13.739zM488.277 178.987c28.8 0 52.139-23.381 52.139-52.139 0-28.928-23.339-52.267-52.139-52.267s-52.139 23.381-52.139 52.267c0.043 28.757 23.424 52.139 52.139 52.139zM488.277 221.653c-52.309 0-94.805-42.539-94.805-94.805 0-52.395 42.496-94.933 94.805-94.933 52.267 0 94.805 42.539 94.805 94.933 0.043 52.267-42.539 94.805-94.805 94.805v0zM734.848 178.987c28.8 0 52.139-23.381 52.139-52.139 0-28.928-23.339-52.267-52.139-52.267-28.843 0-52.181 23.381-52.181 52.267 0 28.757 23.339 52.139 52.181 52.139zM734.848 221.653c-52.309 0-94.848-42.539-94.848-94.805 0-52.395 42.539-94.933 94.848-94.933 52.267 0 94.805 42.539 94.805 94.933-0.043 52.267-42.581 94.805-94.805 94.805v0zM832 736.043c-11.733 0-21.333 9.6-21.333 21.333v213.333c0 11.733 9.6 21.333 21.333 21.333 11.776 0 21.333-9.6 21.333-21.333v-213.333c0-11.733-9.557-21.333-21.333-21.333zM938.667 842.709h-213.333c-11.733 0-21.333 9.6-21.333 21.333s9.6 21.333 21.333 21.333h213.333c11.776 0 21.333-9.6 21.333-21.333s-9.557-21.333-21.333-21.333z" />
<glyph unicode="&#xe908;" glyph-name="add-space-after-paragraph" d="M43.563 213.333c-4.139 0-8.235 1.152-11.947 3.669-9.771 6.571-12.245 19.84-5.675 29.568l93.227 137.387-93.227 137.387c-6.571 9.771-4.096 22.997 5.675 29.568s23.040 4.096 29.611-5.675l101.333-149.333c4.907-7.253 4.907-16.896 0-24.021l-101.333-149.333c-4.181-5.931-10.837-9.216-17.664-9.216zM980.437 789.333h-725.333c-11.733 0-21.333 9.6-21.333 21.333s9.6 21.333 21.333 21.333h725.333c11.733 0 21.333-9.6 21.333-21.333s-9.6-21.333-21.333-21.333zM553.771 618.667h-298.667c-11.733 0-21.333 9.6-21.333 21.333s9.6 21.333 21.333 21.333h298.667c11.733 0 21.333-9.6 21.333-21.333s-9.6-21.333-21.333-21.333zM809.771 490.667h-554.667c-11.733 0-21.333 9.6-21.333 21.333s9.6 21.333 21.333 21.333h554.667c11.733 0 21.333-9.6 21.333-21.333s-9.6-21.333-21.333-21.333zM297.771 362.667h-42.667c-11.733 0-21.333 9.6-21.333 21.333s9.6 21.333 21.333 21.333h42.667c11.776 0 21.333-9.6 21.333-21.333s-9.6-21.333-21.333-21.333zM468.437 362.667h-42.667c-11.733 0-21.333 9.6-21.333 21.333s9.6 21.333 21.333 21.333h42.667c11.776 0 21.333-9.6 21.333-21.333s-9.6-21.333-21.333-21.333zM639.104 362.667h-42.667c-11.605 0-21.333 9.6-21.333 21.333s9.728 21.333 21.333 21.333h42.667c11.733 0 21.333-9.6 21.333-21.333s-9.6-21.333-21.333-21.333zM809.771 362.667h-42.667c-11.605 0-21.333 9.6-21.333 21.333s9.728 21.333 21.333 21.333h42.667c11.733 0 21.333-9.6 21.333-21.333s-9.6-21.333-21.333-21.333zM980.437 362.667h-42.667c-11.605 0-21.333 9.6-21.333 21.333s9.728 21.333 21.333 21.333h42.667c11.733 0 21.333-9.6 21.333-21.333s-9.6-21.333-21.333-21.333zM297.771 277.333h-42.667c-11.733 0-21.333 9.6-21.333 21.333s9.6 21.333 21.333 21.333h42.667c11.776 0 21.333-9.6 21.333-21.333s-9.6-21.333-21.333-21.333zM468.437 277.333h-42.667c-11.733 0-21.333 9.6-21.333 21.333s9.6 21.333 21.333 21.333h42.667c11.776 0 21.333-9.6 21.333-21.333s-9.6-21.333-21.333-21.333zM639.104 277.333h-42.667c-11.605 0-21.333 9.6-21.333 21.333s9.728 21.333 21.333 21.333h42.667c11.733 0 21.333-9.6 21.333-21.333s-9.6-21.333-21.333-21.333zM809.771 277.333h-42.667c-11.605 0-21.333 9.6-21.333 21.333s9.728 21.333 21.333 21.333h42.667c11.733 0 21.333-9.6 21.333-21.333s-9.6-21.333-21.333-21.333zM980.437 277.333h-42.667c-11.605 0-21.333 9.6-21.333 21.333s9.728 21.333 21.333 21.333h42.667c11.733 0 21.333-9.6 21.333-21.333s-9.6-21.333-21.333-21.333z" />
<glyph unicode="&#xe909;" glyph-name="add-space-before-paragraph" d="M724.437 234.667h-469.333c-11.733 0-21.333 9.643-21.333 21.333s9.6 21.333 21.333 21.333h469.333c11.776 0 21.333-9.643 21.333-21.333s-9.557-21.333-21.333-21.333zM809.771 490.667h-554.667c-11.733 0-21.333 9.643-21.333 21.333 0 11.733 9.6 21.333 21.333 21.333h554.667c11.776 0 21.333-9.6 21.333-21.333 0-11.691-9.557-21.333-21.333-21.333zM511.104 362.667h-256c-11.733 0-21.333 9.643-21.333 21.333s9.6 21.333 21.333 21.333h256c11.776 0 21.333-9.643 21.333-21.333s-9.557-21.333-21.333-21.333zM43.563 469.419c-4.139 0-8.235 1.109-11.947 3.669-9.771 6.571-12.245 19.84-5.675 29.568l93.227 137.387-93.269 137.387c-6.571 9.771-4.053 22.997 5.675 29.568 9.813 6.571 23.040 4.096 29.653-5.675l101.333-149.333c4.907-7.253 4.907-16.768 0-24.021l-101.333-149.333c-4.139-5.931-10.837-9.216-17.664-9.216zM297.771 704.085h-42.667c-11.733 0-21.333 9.6-21.333 21.333s9.6 21.333 21.333 21.333h42.667c11.776 0 21.333-9.6 21.333-21.333s-9.557-21.333-21.333-21.333zM468.437 704.085h-42.667c-11.733 0-21.333 9.6-21.333 21.333s9.6 21.333 21.333 21.333h42.667c11.776 0 21.333-9.6 21.333-21.333s-9.557-21.333-21.333-21.333zM639.104 704.085h-42.667c-11.605 0-21.333 9.6-21.333 21.333s9.728 21.333 21.333 21.333h42.667c11.776 0 21.333-9.6 21.333-21.333s-9.557-21.333-21.333-21.333zM809.771 704.085h-42.667c-11.605 0-21.333 9.6-21.333 21.333s9.728 21.333 21.333 21.333h42.667c11.776 0 21.333-9.6 21.333-21.333s-9.557-21.333-21.333-21.333zM980.437 704.085h-42.667c-11.605 0-21.333 9.6-21.333 21.333s9.728 21.333 21.333 21.333h42.667c11.776 0 21.333-9.6 21.333-21.333s-9.557-21.333-21.333-21.333zM297.771 618.752h-42.667c-11.733 0-21.333 9.6-21.333 21.333s9.6 21.333 21.333 21.333h42.667c11.776 0 21.333-9.6 21.333-21.333s-9.557-21.333-21.333-21.333zM468.437 618.752h-42.667c-11.733 0-21.333 9.6-21.333 21.333s9.6 21.333 21.333 21.333h42.667c11.776 0 21.333-9.6 21.333-21.333s-9.557-21.333-21.333-21.333zM639.104 618.752h-42.667c-11.605 0-21.333 9.6-21.333 21.333s9.728 21.333 21.333 21.333h42.667c11.776 0 21.333-9.6 21.333-21.333s-9.557-21.333-21.333-21.333zM809.771 618.752h-42.667c-11.605 0-21.333 9.6-21.333 21.333s9.728 21.333 21.333 21.333h42.667c11.776 0 21.333-9.6 21.333-21.333s-9.557-21.333-21.333-21.333zM980.437 618.752h-42.667c-11.605 0-21.333 9.6-21.333 21.333s9.728 21.333 21.333 21.333h42.667c11.776 0 21.333-9.6 21.333-21.333s-9.557-21.333-21.333-21.333z" />
<glyph unicode="&#xe90a;" glyph-name="add-user" d="M517.333 282.667c-126.507 0-229.589 137.387-239.232 258.901-28.459 8.021-54.101 31.488-54.101 61.099v85.333c0 26.667 25.813 45.909 42.667 55.637v72.363c0 80.896 64.64 146.944 144.939 149.248 17.152 6.869 84.736 32.085 153.728 32.085 110.080 0 170.667-64.427 170.667-181.333v-65.877c42.667-8.32 42.667-42.581 42.667-62.123v-85.333c0-29.696-13.483-51.84-35.243-60.245-8.192-126.080-102.187-259.755-226.091-259.755zM565.333 954.667c-69.205 0-140.245-29.952-140.928-30.293-2.645-1.109-5.504-1.707-8.405-1.707-58.795 0-106.667-47.829-106.667-106.667v-85.333c0-8.363-4.949-16-12.587-19.456-15.189-6.869-29.269-18.645-30.123-23.381v-85.163c0-9.387 17.92-21.333 32-21.333 11.776 0 21.333-9.557 21.333-21.333 0-105.643 91.051-234.667 197.333-234.667 103.637 0 184.021 126.165 184.021 234.667 0 11.776 9.557 21.333 21.333 21.333 8.832 0 13.355 7.168 13.355 21.333v85.333c0 21.333 0 21.333-21.333 21.333-11.733 0-21.333 9.557-21.333 21.333v85.333c0 93.312-41.813 138.667-128 138.667zM842.667 26.667c-11.733 0-21.333 9.557-21.333 21.333v213.333c0 11.776 9.6 21.333 21.333 21.333s21.333-9.557 21.333-21.333v-213.333c0-11.776-9.6-21.333-21.333-21.333zM949.333 133.333h-213.333c-11.733 0-21.333 9.557-21.333 21.333s9.6 21.333 21.333 21.333h213.333c11.733 0 21.333-9.557 21.333-21.333s-9.6-21.333-21.333-21.333zM74.667 26.667c-11.776 0-21.333 9.557-21.333 21.333 0 123.563 98.688 213.333 234.667 213.333h52.608l56.789 84.736c6.571 9.771 19.797 12.416 29.611 5.845 9.771-6.528 12.416-19.797 5.845-29.568l-63.104-94.208c-3.968-5.931-10.624-9.472-17.749-9.472h-64c-113.024 0-192-70.229-192-170.667 0-11.776-9.557-21.333-21.333-21.333z" />
<glyph unicode="&#xe90b;" glyph-name="add-user-star" horiz-adv-x="1252" d="M1123.84 43.008c-11.733 0-21.333 9.6-21.333 21.333v213.333c0 11.776 9.6 21.333 21.333 21.333s21.333-9.557 21.333-21.333v-213.333c0-11.861-9.6-21.333-21.333-21.333zM1230.507 149.675h-213.333c-11.733 0-21.333 9.6-21.333 21.333 0 11.776 9.6 21.333 21.333 21.333h213.333c11.733 0 21.333-9.557 21.333-21.333s-9.6-21.333-21.333-21.333zM787.627 221.013c-128.811 0-200.875 135.595-207.104 269.525-32.043 7.083-75.392 28.416-75.392 63.104v89.003c0 27.477 25.856 47.232 42.667 57.301v76.117c0 79.701 53.035 130.005 138.88 132.48 68.096 46.592 131.243 70.229 187.819 70.229 51.627 0 95.104-20.48 122.325-57.813 28.928-39.552 36.437-94.635 20.352-148.053v-66.347c42.667-8.576 42.667-43.733 42.667-63.915v-88.96c0-32.939-39.083-55.765-71.211-63.104-5.76-136.917-74.539-269.568-201.003-269.568zM874.539 936.235c-48.555 0-106.88-22.869-168.789-66.304-3.584-2.56-7.936-3.883-12.245-3.883-38.485 0-103.040-11.563-103.040-89.899v-88.917c0-8.192-4.821-15.744-12.288-19.285-16.043-7.637-30.336-20.437-30.379-25.216v-89.003c2.688-7.765 34.688-23.168 53.632-23.168 11.776 0 21.333-9.557 21.333-21.333 0-102.016 51.157-245.632 164.821-245.632 116.437 0 158.72 146.859 158.72 245.632 0 11.776 9.557 21.333 21.333 21.333 19.499 0 47.872 15.872 49.536 23.509v88.661c0 23.168 0 23.168-21.333 23.168-11.733 0-21.333 9.6-21.333 21.333v88.917c0 2.304 0.341 4.437 0.981 6.485 13.312 41.515 8.32 83.755-13.141 113.109-19.243 26.496-49.579 40.491-87.808 40.491zM355.541 557.184c-4.437 0-8.917 1.365-12.672 4.267l-115.157 85.12-115.072-82.731c-7.509-5.376-17.664-5.291-25.131 0.171-7.467 5.547-10.496 15.232-7.509 24.021l43.563 128.171-114.176 77.227c-7.765 5.248-11.179 15.061-8.448 24.021s11.008 15.104 20.437 15.104h142.293l43.947 135.339c5.76 17.579 34.859 17.579 40.576 0l43.989-135.339h142.293c9.387 0 17.664-6.144 20.437-15.104 2.688-8.96-0.768-18.688-8.491-24.021l-114.219-76.843 43.605-131.2c2.944-8.832-0.171-18.56-7.723-24.021-3.755-2.859-8.149-4.181-12.544-4.181zM227.84 694.272c4.437 0 8.917-1.28 12.672-4.181l73.429-54.357-27.477 82.731c-3.029 9.131 0.384 19.072 8.277 24.448l69.675 46.848h-87.893c-9.259 0-17.451 5.973-20.309 14.763l-28.459 87.637-28.459-87.68c-2.859-8.789-11.051-14.72-20.352-14.72h-88.149l70.016-47.36c8.021-5.376 11.349-15.317 8.235-24.448l-27.392-80.555 73.643 52.949c3.797 2.603 8.107 3.925 12.544 3.925zM270.507 43.008c-11.776 0-21.333 9.6-21.333 21.333 0 123.563 98.688 213.333 234.667 213.333h52.565l56.789 84.736c6.571 9.771 19.797 12.459 29.611 5.845 9.771-6.485 12.416-19.797 5.845-29.568l-63.104-94.165c-3.968-5.973-10.624-9.515-17.749-9.515h-64c-113.024 0-192-70.229-192-170.667 0.043-11.861-9.557-21.333-21.291-21.333z" />
<glyph unicode="&#xe90c;" glyph-name="add-window" d="M1002.667 128h-981.333c-11.776 0-21.333 9.6-21.333 21.333v725.333c0 11.733 9.557 21.333 21.333 21.333h981.333c11.733 0 21.333-9.6 21.333-21.333v-725.333c0-11.733-9.6-21.333-21.333-21.333zM42.667 170.667h938.667v682.667h-938.667v-682.667zM981.333 682.667h-938.667c-11.776 0-21.333 9.6-21.333 21.333s9.557 21.333 21.333 21.333h938.667c11.733 0 21.333-9.6 21.333-21.333s-9.6-21.333-21.333-21.333zM170.667 789.333c0-11.782-9.551-21.333-21.333-21.333s-21.333 9.551-21.333 21.333c0 11.782 9.551 21.333 21.333 21.333s21.333-9.551 21.333-21.333zM256 789.333c0-11.782-9.551-21.333-21.333-21.333s-21.333 9.551-21.333 21.333c0 11.782 9.551 21.333 21.333 21.333s21.333-9.551 21.333-21.333zM341.333 789.333c0-11.782-9.551-21.333-21.333-21.333s-21.333 9.551-21.333 21.333c0 11.782 9.551 21.333 21.333 21.333s21.333-9.551 21.333-21.333zM789.333 234.667c-11.733 0-21.333 9.6-21.333 21.333v213.333c0 11.733 9.6 21.333 21.333 21.333s21.333-9.6 21.333-21.333v-213.333c0-11.733-9.6-21.333-21.333-21.333zM896 341.333h-213.333c-11.733 0-21.333 9.6-21.333 21.333s9.6 21.333 21.333 21.333h213.333c11.733 0 21.333-9.6 21.333-21.333s-9.6-21.333-21.333-21.333z" />
<glyph unicode="&#xe90d;" glyph-name="address-book" d="M896 0h-832c-11.776 0-21.333 9.6-21.333 21.333v981.333c0 11.776 9.557 21.333 21.333 21.333h789.333c70.571 0 128-57.429 128-128v-810.667c0-47.104-38.229-85.333-85.333-85.333zM85.333 42.667h810.667c23.509 0 42.667 19.115 42.667 42.667v810.667c0 47.019-38.229 85.333-85.333 85.333h-768v-938.667zM149.333 21.333c-11.776 0-21.333 9.6-21.333 21.333v938.667c0 11.776 9.557 21.333 21.333 21.333s21.333-9.557 21.333-21.333v-938.667c0-11.733-9.557-21.333-21.333-21.333zM554.667 554.667c-70.571 0-128 57.429-128 128s57.429 128 128 128c70.571 0 128-57.429 128-128s-57.429-128-128-128zM554.667 768c-47.061 0-85.333-38.315-85.333-85.333 0-47.061 38.272-85.333 85.333-85.333 47.104 0 85.333 38.272 85.333 85.333 0 47.019-38.229 85.333-85.333 85.333zM790.187 213.333c-0.256 0-0.555 0-0.853 0h-469.333c-11.776 0-21.333 9.6-21.333 21.333 0 168.448 100.48 277.333 256 277.333 153.685 0 253.483-106.155 255.957-271.147 0.64-2.005 0.896-4.096 0.896-6.187 0-11.733-9.557-21.333-21.333-21.333zM341.931 256h425.472c-8.661 156.8-113.92 213.333-212.693 213.333s-204.075-56.533-212.779-213.333z" />
<glyph unicode="&#xe90e;" glyph-name="address-book-2" d="M842.667 0h-746.667c-11.776 0-21.333 9.6-21.333 21.333v981.333c0 11.776 9.557 21.333 21.333 21.333h746.667c47.104 0 85.333-38.315 85.333-85.333v-853.333c0-47.104-38.229-85.333-85.333-85.333zM117.333 42.667h725.333c23.509 0 42.667 19.115 42.667 42.667v853.333c0 23.552-19.157 42.667-42.667 42.667h-725.333v-938.667zM992 725.333h-85.333c-11.733 0-21.333 9.557-21.333 21.333v128c0 11.776 9.6 21.333 21.333 21.333h85.333c11.733 0 21.333-9.557 21.333-21.333v-128c0-11.776-9.6-21.333-21.333-21.333zM928 768h42.667v85.333h-42.667v-85.333zM992 597.333h-85.333c-11.733 0-21.333 9.557-21.333 21.333v128c0 11.776 9.6 21.333 21.333 21.333h85.333c11.733 0 21.333-9.557 21.333-21.333v-128c0-11.776-9.6-21.333-21.333-21.333zM928 640h42.667v85.333h-42.667v-85.333zM992 469.333h-85.333c-11.733 0-21.333 9.6-21.333 21.333v128c0 11.776 9.6 21.333 21.333 21.333h85.333c11.733 0 21.333-9.557 21.333-21.333v-128c0-11.733-9.6-21.333-21.333-21.333zM928 512h42.667v85.333h-42.667v-85.333zM992 341.333h-85.333c-11.733 0-21.333 9.6-21.333 21.333v128c0 11.776 9.6 21.333 21.333 21.333h85.333c11.733 0 21.333-9.557 21.333-21.333v-128c0-11.733-9.6-21.333-21.333-21.333zM928 384h42.667v85.333h-42.667v-85.333zM992 213.333h-85.333c-11.733 0-21.333 9.6-21.333 21.333v128c0 11.733 9.6 21.333 21.333 21.333h85.333c11.733 0 21.333-9.6 21.333-21.333v-128c0-11.733-9.6-21.333-21.333-21.333zM928 256h42.667v85.333h-42.667v-85.333zM992 85.333h-85.333c-11.733 0-21.333 9.6-21.333 21.333v128c0 11.733 9.6 21.333 21.333 21.333h85.333c11.733 0 21.333-9.6 21.333-21.333v-128c0-11.733-9.6-21.333-21.333-21.333zM928 128h42.667v85.333h-42.667v-85.333zM160 896h-128c-11.776 0-21.333 9.557-21.333 21.333s9.557 21.333 21.333 21.333h128c11.776 0 21.333-9.557 21.333-21.333s-9.557-21.333-21.333-21.333zM160 768h-128c-11.776 0-21.333 9.557-21.333 21.333s9.557 21.333 21.333 21.333h128c11.776 0 21.333-9.557 21.333-21.333s-9.557-21.333-21.333-21.333zM160 640h-128c-11.776 0-21.333 9.557-21.333 21.333s9.557 21.333 21.333 21.333h128c11.776 0 21.333-9.557 21.333-21.333s-9.557-21.333-21.333-21.333zM160 512h-128c-11.776 0-21.333 9.557-21.333 21.333s9.557 21.333 21.333 21.333h128c11.776 0 21.333-9.557 21.333-21.333s-9.557-21.333-21.333-21.333zM160 384h-128c-11.776 0-21.333 9.6-21.333 21.333s9.557 21.333 21.333 21.333h128c11.776 0 21.333-9.6 21.333-21.333s-9.557-21.333-21.333-21.333zM160 256h-128c-11.776 0-21.333 9.6-21.333 21.333s9.557 21.333 21.333 21.333h128c11.776 0 21.333-9.6 21.333-21.333s-9.557-21.333-21.333-21.333zM160 128h-128c-11.776 0-21.333 9.6-21.333 21.333s9.557 21.333 21.333 21.333h128c11.776 0 21.333-9.6 21.333-21.333s-9.557-21.333-21.333-21.333z" />
<glyph unicode="&#xe90f;" glyph-name="administrator" d="M506.667 304c-126.507 0-229.589 137.387-239.232 258.901-28.459 8.021-54.101 31.573-54.101 61.099v85.333c0 26.667 25.813 45.909 42.667 55.637v72.363c0 80.896 64.64 146.944 144.939 149.248 17.152 6.869 84.736 32.085 153.728 32.085 110.080 0 170.667-64.427 170.667-181.333v-65.877c42.667-8.32 42.667-42.581 42.667-62.123v-85.333c0-29.696-13.483-51.84-35.243-60.245-8.192-126.080-102.187-259.755-226.091-259.755zM554.667 976c-69.205 0-140.245-29.952-140.928-30.293-2.645-1.109-5.504-1.707-8.405-1.707-58.795 0-106.667-47.829-106.667-106.667v-85.333c0-8.363-4.949-16-12.587-19.456-15.189-6.869-29.269-18.645-30.123-23.381l0.043-85.163c0-9.387 17.92-21.333 32-21.333 11.776 0 21.333-9.557 21.333-21.333 0-105.643 91.051-234.667 197.333-234.667 103.68 0 184.021 126.165 184.021 234.667 0 11.776 9.6 21.333 21.333 21.333 8.917 0 13.355 7.168 13.355 21.333v85.333c0 21.333 0 21.333-21.333 21.333-11.776 0-21.333 9.557-21.333 21.333v85.333c-0.043 93.312-41.856 138.667-128.043 138.667zM64 5.333c-11.776 0-21.333 9.557-21.333 21.333v42.667c0 123.563 98.688 213.333 234.667 213.333h52.608l56.789 84.736c6.613 9.771 19.797 12.416 29.611 5.845 9.771-6.528 12.416-19.797 5.845-29.568l-63.104-94.208c-3.968-5.931-10.624-9.472-17.749-9.472h-64c-113.024 0-192-70.187-192-170.667v-42.667c0-11.776-9.557-21.333-21.333-21.333zM960 5.333c-11.733 0-21.333 9.557-21.333 21.333v42.667c0 100.48-77.483 170.667-188.501 170.667h-64c-7.040 0-13.568 3.456-17.579 9.259l-69.248 100.693c-6.656 9.728-4.224 22.997 5.504 29.611 9.771 6.613 23.040 4.224 29.653-5.547l62.933-91.477h52.736c136.064 0 231.168-87.765 231.168-213.333v-42.667c0-11.648-9.6-21.205-21.333-21.205zM512 133.333c-3.925 0-7.851 1.067-11.307 3.243l-170.667 106.667c-9.984 6.229-13.013 19.413-6.784 29.355 6.229 10.027 19.371 13.184 29.397 6.784l159.445-99.669 162.901 99.797c10.069 6.229 23.211 2.987 29.355-7.083 6.187-9.941 2.987-23.168-7.040-29.355l-174.165-106.667c-3.413-2.048-7.296-3.072-11.136-3.072z" />
<glyph unicode="&#xe910;" glyph-name="aerobics" d="M224.896 138.667c-2.219 0-4.437 0.341-6.613 0.981-11.179 3.669-17.323 15.659-13.696 26.923l102.741 316.075c3.627 11.264 15.573 17.408 26.88 13.611 11.179-3.627 17.323-15.659 13.696-26.88l-102.741-316.075c-2.944-8.917-11.307-14.635-20.267-14.635zM627.541 309.333c-8.619 0-16.768 5.248-19.968 13.824l-60.203 160.597-182.912 51.328c-11.349 3.157-17.963 15.019-14.763 26.24 3.2 11.435 14.976 17.835 26.325 14.891l193.323-54.229c6.485-1.835 11.776-6.613 14.165-13.099l64-170.667c4.181-11.051-1.408-23.339-12.459-27.52-2.475-0.939-4.949-1.365-7.509-1.365zM161.792 677.845c-6.827 0-13.483 3.243-17.664 9.429-6.571 9.728-4.096 22.955 5.675 29.568l165.845 112.512c8.491 5.717 19.84 4.565 27.051-2.688l38.656-38.571c8.277-8.235 8.277-21.931 0-30.165-8.32-8.235-21.888-8.235-30.165 0l-26.24 26.155-151.168-102.528c-3.712-2.56-7.808-3.712-11.989-3.712zM606.208 608h-96.427c-5.76 0-11.264 2.347-15.275 6.4l-94.208 96.896c-8.192 8.448-8.021 22.016 0.469 30.165 8.405 8.192 21.931 8.021 30.165-0.427l87.936-90.411h87.424c11.776 0 21.333-9.643 21.333-21.333s-9.643-21.291-21.419-21.291zM478.464 778.667c-35.243 0-64 28.715-64 64s28.757 64 64 64c35.285 0 64-28.715 64-64s-28.715-64-64-64zM478.464 864c-11.733 0-21.333-9.6-21.333-21.333s9.643-21.333 21.333-21.333c11.733 0 21.333 9.6 21.333 21.333s-9.557 21.333-21.333 21.333zM862.208 117.333c-11.733 0-21.333 9.6-21.333 21.333v85.333h-298.667v-85.333c0-11.733-9.557-21.333-21.333-21.333-11.733 0-21.333 9.6-21.333 21.333v106.667c0 11.733 9.6 21.333 21.333 21.333h341.333c11.776 0 21.333-9.6 21.333-21.333v-106.667c0-11.733-9.557-21.333-21.333-21.333z" />
<glyph unicode="&#xe911;" glyph-name="aerobics-2" d="M629.589 821.333c-35.243 0-64 28.715-64 64s28.757 64 64 64c35.285 0 64-28.715 64-64s-28.715-64-64-64zM629.589 906.667c-11.733 0-21.333-9.6-21.333-21.333s9.6-21.333 21.333-21.333 21.333 9.6 21.333 21.333-9.557 21.333-21.333 21.333zM330.667 74.667c-11.776 0-21.333 9.6-21.333 21.333v42.667h-170.667v-42.667c0-11.733-9.557-21.333-21.333-21.333s-21.333 9.6-21.333 21.333v64c0 11.733 9.557 21.333 21.333 21.333h213.333c11.776 0 21.333-9.6 21.333-21.333v-64c0-11.733-9.557-21.333-21.333-21.333zM629.333 74.667c-11.733 0-21.333 9.6-21.333 21.333v379.051l-379.605-79.915c-11.435-2.389-22.869 4.907-25.259 16.555-2.432 11.563 4.949 22.827 16.469 25.259l405.333 85.333c6.357 1.109 12.928-0.341 17.835-4.352 4.992-4.096 7.936-10.155 7.936-16.597v-405.333c-0.043-11.733-9.643-21.333-21.376-21.333zM586.923 736c-2.219 0-4.48 0.341-6.656 1.067l-255.403 84.437c-11.179 3.712-17.28 15.744-13.568 26.965 3.669 11.221 15.744 17.451 26.923 13.525l255.36-84.437c11.179-3.712 17.237-15.744 13.568-26.965-2.944-8.917-11.264-14.592-20.224-14.592zM629.333 458.667c-11.733 0-21.333 9.6-21.333 21.333v213.333c0 11.733 9.6 21.333 21.333 21.333s21.333-9.6 21.333-21.333v-213.333c0-11.733-9.6-21.333-21.333-21.333zM906.667 736h-213.333c-11.733 0-21.333 9.6-21.333 21.333s9.6 21.333 21.333 21.333h213.333c11.733 0 21.333-9.6 21.333-21.333s-9.6-21.333-21.333-21.333z" />
<glyph unicode="&#xe912;" glyph-name="aerobics-3" d="M363.648 768.896c-35.243 0-64 28.715-64 64s28.757 64 64 64c35.285 0 64-28.715 64-64s-28.672-64-64-64zM363.648 854.229c-11.733 0-21.333-9.6-21.333-21.333s9.643-21.333 21.333-21.333c11.733 0 21.333 9.6 21.333 21.333s-9.515 21.333-21.333 21.333zM531.499 381.312c-11.776 0-21.333 9.6-21.333 21.333 0 185.643-11.093 282.283-74.24 329.643-9.429 7.083-11.307 20.437-4.267 29.824 7.040 9.515 20.395 11.477 29.824 4.395 77.611-58.24 91.307-163.712 91.307-363.691 0.043-11.904-9.515-21.504-21.291-21.504zM320.939 2.645c-3.499 0-7.083 0.896-10.325 2.731-10.283 5.76-13.995 18.688-8.277 29.013l210.517 378.667c3.755 6.741 10.837 10.923 18.603 11.008 0 0 0.043 0 0.085 0 7.68 0 14.805-4.181 18.56-10.837l214.187-378.667c5.803-10.24 2.176-23.253-8.064-29.099-10.24-5.931-23.253-2.347-29.056 8.021l-195.413 345.6-192-345.515c-3.968-6.912-11.264-10.923-18.816-10.923zM455.851 707.328c-10.411 0-19.499 7.68-21.077 18.304-1.749 11.563 6.315 22.443 17.963 24.107 108.757 16.256 174.251 55.168 184.533 109.653 8.149 43.264-21.077 93.355-71.083 122.069-10.155 5.931-13.696 18.773-7.893 29.184 5.845 10.155 18.816 13.739 29.141 7.936 65.493-37.589 103.211-106.24 91.776-167.083-8.064-42.667-47.36-118.229-220.16-143.915-1.152-0.171-2.176-0.256-3.2-0.256zM530.859 445.397c-2.773 0-5.675 0.597-8.405 1.749l-252.587 109.312c-6.741 2.859-11.563 9.088-12.587 16.341-1.067 7.253 1.579 14.592 7.168 19.413l177.451 152.576c9.003 7.723 22.4 6.656 30.080-2.261 7.723-8.96 6.656-22.4-2.261-30.080l-151.68-130.432 221.312-95.744c10.795-4.651 15.787-17.237 11.093-28.075-3.413-8.021-11.264-12.8-19.584-12.8z" />
<glyph unicode="&#xe913;" glyph-name="affiliate" horiz-adv-x="1293" d="M326.699 457.301c-105.429 0-190.976 162.773-190.976 269.184 0 105.301 85.675 191.019 190.976 191.019 105.259 0 190.933-85.675 190.933-191.019 0-106.283-85.504-269.184-190.933-269.184zM326.699 874.709c-81.792 0-148.309-66.56-148.309-148.309 0-85.333 69.333-226.56 148.309-226.56s148.267 141.227 148.267 226.56c0 81.792-66.517 148.309-148.267 148.309zM966.741 457.301c-105.429 0-191.104 162.773-191.104 269.184 0 105.301 85.76 191.019 191.104 191.019 105.259 0 190.933-85.675 190.933-191.019 0-106.283-85.589-269.184-190.933-269.184zM966.741 874.709c-81.749 0-148.437-66.56-148.437-148.309 0-85.333 69.333-226.56 148.437-226.56 78.933 0 148.267 141.227 148.267 226.56 0 81.792-66.517 148.309-148.267 148.309zM326.699 106.539c-180.139 0-326.699 102.272-326.699 228.309 0 85.163 67.029 199.125 170.752 290.304 8.875 7.765 22.357 6.869 30.123-1.963 7.808-8.832 6.912-22.315-1.92-30.165-93.44-82.091-156.245-185.813-156.245-258.176 0-102.229 127.403-185.6 284.032-185.6 33.963 0 55.424 4.437 84.309 11.264 11.392 2.645 22.955-4.437 25.643-15.915s-4.437-22.912-15.915-25.728c-30.848-7.253-55.595-12.331-94.080-12.331zM583.808 459.563c-7.296 0-14.421 3.755-18.389 10.496-26.283 44.501-62.677 79.104-111.232 123.008-8.747 7.979-9.429 21.461-1.493 30.208 7.936 8.704 21.419 9.429 30.123 1.536 51.371-46.549 90.027-83.285 119.339-132.992 5.973-10.069 2.645-23.211-7.509-29.269-3.413-2.005-7.125-2.987-10.837-2.987zM698.837 459.563c-3.669 0-7.424 0.896-10.837 2.901-10.155 6.101-13.397 19.029-7.509 29.269 24.064 40.789 60.587 72.32 99.157 105.813 10.24 8.832 20.651 17.835 30.848 27.136 8.704 7.893 22.229 7.253 30.165-1.451 7.936-8.747 7.253-22.229-1.493-30.123-10.411-9.557-21.077-18.688-31.573-27.776-35.84-31.104-69.76-60.416-90.24-95.104-4.096-6.912-11.179-10.667-18.517-10.667zM966.741 106.709c-35.157 0-70.4 4.224-104.747 12.075-11.435 2.688-18.603 14.165-15.915 25.771 2.731 11.52 13.824 18.688 25.685 15.872 31.104-7.296 63.104-11.008 95.061-11.008 156.587 0 283.904 83.115 283.904 185.301 0 72.363-62.891 176.171-156.245 258.176-8.832 7.893-9.771 21.291-1.92 30.165 7.765 8.832 21.248 9.771 30.037 1.92 103.808-91.051 170.795-205.056 170.795-290.261 0-125.824-146.56-228.011-326.656-228.011zM477.483 181.376c-70.571 0-128 56.832-128 126.805 0 70.997 54.443 126.763 123.989 126.763 29.099 0 48.469-10.24 65.024-21.333 9.771-6.571 12.459-19.84 5.888-29.611-6.528-9.771-19.84-12.373-29.568-5.973-13.739 9.216-24.363 14.165-41.301 14.165-45.611 0-81.323-36.864-81.323-84.096 0-46.336 38.272-84.096 85.333-84.096 18.645 0 37.76 6.485 52.437 17.835 9.344 7.168 22.741 5.419 29.909-3.84 7.168-9.429 5.461-22.741-3.883-29.909-22.315-17.237-50.176-26.709-78.507-26.709zM862.976 181.376c-28.331 0-56.192 9.557-78.507 26.752-9.387 7.168-11.093 20.523-3.925 29.909 7.168 9.259 20.523 11.093 29.867 3.84 14.72-11.392 33.835-17.835 52.437-17.835 47.061 0 85.333 37.675 85.333 84.139 0 47.104-35.84 84.096-81.28 84.096-16.939 0-27.563-4.992-41.387-14.165-9.771-6.4-23.083-3.925-29.568 5.888s-3.925 23.040 5.931 29.611c16.597 11.093 35.925 21.333 64.939 21.333 69.589 0 123.947-55.765 123.947-126.763 0.213-69.973-57.259-126.805-127.787-126.805zM803.755 288.896h-256c-11.776 0-21.333 9.643-21.333 21.333 0 11.733 9.557 21.333 21.333 21.333h256c11.733 0 21.333-9.6 21.333-21.333 0-11.691-9.6-21.333-21.333-21.333z" />
<glyph unicode="&#xe914;" glyph-name="aim" d="M661.376 661.76c-99.925 0-181.333 81.323-181.333 181.333s81.408 181.333 181.333 181.333c100.011 0 181.333-81.323 181.333-181.333s-81.323-181.333-181.333-181.333zM661.376 981.76c-76.416 0-138.667-62.208-138.667-138.667s62.208-138.667 138.667-138.667c76.501 0 138.667 62.208 138.667 138.667s-62.165 138.667-138.667 138.667zM724.949-0.427c-3.072 0-6.229 0.683-9.088 2.048-5.333 2.475-9.344 7.040-11.179 12.587-0.64 1.792-59.221 173.867-208.299 257.707-135.552-162.901-379.051-164.821-389.675-164.821-9.771 0-18.304 6.656-20.693 16.171l-42.667 170.667c-1.621 6.315-0.171 13.227 3.883 18.347 4.011 5.163 10.24 8.149 16.811 8.149 2.005 0 203.051 1.664 280.917 118.485 13.909 20.267 23.168 49.237 33.877 82.987 22.741 71.509 51.029 160.427 142.72 221.483 9.813 6.485 23.083 3.925 29.525-6.016 6.528-9.771 3.925-22.997-5.973-29.483-79.147-52.779-103.936-130.517-125.653-198.955-11.264-35.371-21.888-68.864-39.211-94.037-72.619-108.971-226.645-131.371-289.237-136.021l32.128-128.555c57.173 3.584 248.704 25.771 350.464 161.408 6.187 8.192 17.365 10.837 26.624 6.229 144.384-72.107 214.571-215.083 236.885-269.312 22.059 9.003 61.312 25.643 112.469 48.896-42.581 156.032-124.16 275.2-242.688 354.304-8.832 6.016-11.989 17.536-7.381 27.179 4.736 9.685 15.829 14.208 25.899 10.923 98.005-32.896 254.165 16.299 307.84 35.2l-30.165 90.496c-49.493-9.003-180.992-23.723-256.896 52.309-8.277 8.32-8.277 21.845 0 30.165 8.235 8.32 21.888 8.32 30.165 0 75.563-75.563 234.069-37.419 235.733-36.992 10.667 2.688 21.845-3.413 25.429-13.909l42.667-128c3.584-10.752-1.835-22.357-12.331-26.581-7.253-2.816-147.499-58.752-271.36-56.021 96-85.589 162.688-201.472 198.784-345.685 2.56-9.899-2.517-20.352-11.776-24.491-91.307-41.941-150.272-65.024-150.912-65.323-2.389-1.024-5.035-1.536-7.637-1.536z" />
<glyph unicode="&#xe915;" glyph-name="air-balloon" d="M658.304 459.733h-292.608c-138.667 0-208.981 70.4-208.981 208.981 0 195.968 159.403 355.285 355.285 355.285 195.925 0 355.243-159.36 355.243-355.285 0-208.981-157.269-208.981-208.939-208.981zM512 982.229c-172.843 0-313.472-140.544-313.472-313.472 0-148.181 89.387-167.168 167.168-167.168h292.565c86.827 0 167.168 20.224 167.168 167.168 0.043 172.885-140.544 313.472-313.429 313.472zM616.491 0h-208.981c-11.52 0-20.907 9.387-20.907 20.907v125.355c0 11.52 9.387 20.864 20.907 20.864h208.981c11.52 0 20.864-9.387 20.864-20.864v-125.355c0-11.52-9.344-20.907-20.864-20.907zM428.416 41.771h167.168v83.584h-167.168v-83.584zM720.981 606.037c-34.603 0-62.72 28.117-62.72 62.677 0 11.52-9.387 20.907-20.907 20.907s-20.864-9.387-20.864-20.907c0-34.56-28.117-62.677-62.72-62.677-34.56 0-62.677 28.117-62.677 62.677 0 11.52-9.387 20.907-20.907 20.907-11.563 0-20.907-9.387-20.907-20.907 0-34.56-28.117-62.677-62.72-62.677-34.56 0-62.677 28.117-62.677 62.677 0 11.52-9.387 20.907-20.907 20.907s-20.907-9.387-20.907-20.907c0-34.56-28.117-62.677-62.677-62.677-34.603 0-62.72 28.117-62.72 62.677h41.771c0-11.477 9.387-20.907 20.907-20.907s20.907 9.429 20.907 20.907c0 34.603 28.117 62.72 62.677 62.72s62.677-28.117 62.677-62.72c0-11.477 9.387-20.907 20.907-20.907 11.563 0 20.907 9.429 20.907 20.907 0 34.603 28.117 62.72 62.72 62.72 34.56 0 62.677-28.117 62.677-62.72 0-11.477 9.387-20.907 20.907-20.907s20.907 9.429 20.907 20.907c0 34.603 28.117 62.72 62.677 62.72 34.603 0 62.72-28.117 62.72-62.72 0-11.477 9.387-20.907 20.907-20.907s20.864 9.429 20.864 20.907c0 34.603 28.117 62.72 62.72 62.72 34.56 0 62.677-28.117 62.677-62.72h-41.771c0 11.52-9.387 20.907-20.864 20.907-11.563 0-20.907-9.387-20.907-20.907 0-34.56-28.117-62.677-62.677-62.677zM388.719 137.058l-190.624 389.047 37.548 18.398 190.624-389.047-37.548-18.398zM635.207 136.973l-37.355 18.594 195.883 393.525 37.355-18.594-195.883-393.525zM453.585 130.078l-45.697 334.388 41.429 5.662 45.697-334.388-41.429-5.662zM573.361 143.379l-41.475 5.625 45.365 334.464 41.475-5.625-45.365-334.464z" />
<glyph unicode="&#xe916;" glyph-name="airbrush" d="M228.267 194.304v0c-24.704 0-48.384 9.557-65.024 26.197-17.024 16.939-26.069 40.149-25.429 65.28 0.64 24.832 10.752 48.256 28.459 66.005 7.125 7.125 15.147 11.691 21.589 15.445 3.84 2.304 7.851 4.565 9.557 6.272l555.008 555.051c4.011 4.011 9.429 6.229 15.104 6.229v0c5.675 0 11.093-2.261 15.104-6.229l90.496-90.539c8.32-8.32 8.32-21.845 0-30.165l-105.6-105.6 45.269-45.269c4.053-4.011 6.229-9.429 6.229-15.104s-2.261-11.093-6.229-15.104l-60.373-60.288c-8.32-8.32-21.845-8.32-30.165 0l-45.269 45.227-358.912-358.955c-1.877-1.835-4.309-5.845-6.613-9.728-3.797-6.272-8.533-14.123-15.488-21.077-17.92-17.792-41.984-27.648-67.712-27.648zM767.488 883.371l-539.947-539.947c-5.632-5.632-12.331-9.6-18.261-13.013-4.992-2.859-9.728-5.589-12.885-8.832-9.941-9.856-15.616-22.997-16-36.907-0.341-13.269 4.267-25.387 12.971-34.005 17.963-18.005 53.291-17.493 72.405 1.579 3.285 3.328 6.144 8.021 9.131 13.013 3.669 6.101 7.467 12.373 13.056 17.877l373.973 373.931c8.277 8.32 21.845 8.32 30.165 0l45.269-45.227 30.208 30.165-45.355 45.269c-4.011 3.968-6.229 9.429-6.229 15.104 0 5.632 2.261 11.051 6.229 15.104l105.643 105.6-60.373 60.288zM303.189 430.677c-0.811 0-1.664 0-2.475 0.128l-45.653 5.333c-3.669 0.427-7.125 1.792-10.112 3.925l-108.501 79.104c-5.035 3.669-8.235 9.344-8.704 15.573s1.792 12.331 6.187 16.768l128.213 128.213c4.48 4.437 10.667 6.784 17.024 6.144 6.315-0.555 12.032-3.925 15.616-9.131l76.459-111.147c2.944-4.267 4.224-9.472 3.584-14.635l-7.125-58.965c-1.408-11.733-11.861-20.096-23.765-18.688-11.691 1.408-20.053 12.075-18.645 23.765l6.187 50.987-57.344 83.371-92.459-92.416 83.797-61.141 40.064-4.608c11.691-1.323 20.096-11.947 18.731-23.723-1.195-10.88-10.411-18.859-21.077-18.859zM907.349 529.067c-63.403 0-124.331 41.259-155.264 72.149-8.32 8.32-8.32 21.803-0.043 30.165 8.277 8.277 21.803 8.32 30.165 0.085 4.224-4.224 103.808-101.333 182.443-39.68 9.216 7.296 22.656 5.675 29.909-3.627 7.253-9.259 5.675-22.656-3.584-29.952-26.709-20.949-55.467-29.141-83.627-29.141zM92.459 547.029c-5.504 0-10.965 2.091-15.147 6.272-8.277 8.363-8.235 21.888 0.128 30.165l153.344 152.021c8.405 8.235 21.888 8.235 30.165-0.171 8.277-8.32 8.235-21.845-0.128-30.165l-153.344-152.021c-4.181-4.053-9.6-6.101-15.019-6.101zM85.333 89.216c-5.333 0-10.624 1.963-14.72 5.888l-39.125 37.333c-4.181 4.011-6.528 9.515-6.613 15.232s2.219 11.349 6.272 15.317l74.24 73.771c8.363 8.277 21.845 8.192 30.165-0.085 8.32-8.363 8.277-21.888-0.085-30.208l-58.667-58.283 8.96-8.619 63.104 56.619c8.747 7.851 22.229 7.125 30.123-1.621 7.893-8.789 7.125-22.272-1.621-30.123l-77.781-69.845c-4.053-3.541-9.131-5.376-14.251-5.376z" />
<glyph unicode="&#xe917;" glyph-name="airship" horiz-adv-x="1062" d="M879.915 341.333h-565.376c-98.773 0-182.229 87.936-182.229 192s84.267 192 184.021 192h561.749c99.755 0 184.021-87.936 184.021-192s-83.456-192-182.187-192zM316.331 682.667c-75.307 0-141.355-69.845-141.355-149.333 0-80.896 63.915-149.333 139.563-149.333h565.333c75.605 0 139.563 68.437 139.563 149.333 0 79.488-66.048 149.333-141.355 149.333h-561.749zM767.915 213.333h-298.667c-9.173 0-17.323 5.931-20.224 14.592l-42.667 128c-2.176 6.485-1.067 13.653 2.901 19.157 3.968 5.589 10.411 8.917 17.28 8.917h384c6.827 0 13.355-3.328 17.323-8.917 4.011-5.504 5.077-12.672 2.859-19.157l-42.667-128c-2.816-8.661-10.965-14.592-20.139-14.592zM484.565 256h267.904l28.416 85.333h-324.736l28.416-85.333zM191.872 256h-170.667c-7.936 0-15.189 4.437-18.901 11.435s-3.157 15.488 1.323 22.144l132.437 192c6.656 9.813 19.968 12.245 29.653 5.419 9.728-6.571 12.16-19.968 5.461-29.525l-109.397-158.549h121.045l76.971 78.976c8.277 8.277 21.76 8.576 30.165 0.341 8.448-8.235 8.619-21.76 0.384-30.165l-83.243-85.333c-3.968-4.395-9.472-6.741-15.232-6.741zM153.685 581.333c-6.699 0-13.269 3.115-17.408 9.003l-132.437 186.624c-4.608 6.485-5.248 15.104-1.579 22.187s10.965 11.52 18.944 11.52h170.667c5.248 0 10.325-1.963 14.251-5.461l83.243-74.667c8.789-7.936 9.515-21.333 1.621-30.123-7.851-8.832-21.333-9.643-30.123-1.621l-77.184 69.205h-121.216l108.544-153.003c6.827-9.643 4.565-22.912-5.035-29.696-3.712-2.731-8.021-3.968-12.288-3.968z" />
<glyph unicode="&#xe918;" glyph-name="alarm" d="M105.984 676.651c-5.461 0-10.923 2.176-15.104 6.229-29.397 29.44-45.568 68.523-45.568 110.123s16.171 80.811 45.568 110.123c58.795 58.837 161.408 58.837 220.288 0 8.32-8.32 8.32-21.845 0-30.165s-21.845-8.32-30.165 0c-42.752 42.752-117.248 42.795-159.957 0-21.333-21.333-33.109-49.749-33.109-79.957s11.776-58.581 33.109-79.957c8.32-8.32 8.32-21.845 0-30.165-4.096-4.139-9.6-6.229-15.061-6.229zM512 124.672c-209.451 0-379.819 170.325-379.819 379.819 0 209.451 170.411 379.819 379.819 379.819s379.819-170.368 379.819-379.819c0-209.493-170.325-379.819-379.819-379.819zM512 841.643c-185.899 0-337.152-151.253-337.152-337.152 0-185.813 151.253-337.067 337.152-337.067s337.152 151.253 337.152 337.067c0 185.899-151.253 337.152-337.152 337.152zM918.059 676.651c-5.461 0-10.965 2.176-15.104 6.229-8.32 8.32-8.32 21.845 0 30.165 21.333 21.376 33.109 49.749 33.109 79.957s-11.819 58.624-33.152 79.957c-42.752 42.795-117.248 42.752-159.915 0-8.32-8.32-21.888-8.32-30.165 0-8.32 8.32-8.32 21.845 0 30.165 58.837 58.837 161.493 58.837 220.245 0 29.397-29.355 45.611-68.48 45.611-110.123s-16.213-80.725-45.611-110.123c-4.139-4.139-9.557-6.229-15.019-6.229zM512 546.048c-11.776 0-21.333 9.6-21.333 21.333v213.333c0 11.733 9.557 21.333 21.333 21.333s21.333-9.6 21.333-21.333v-213.333c0-11.733-9.557-21.333-21.333-21.333zM533.333 503.381c-5.419 0-10.88 2.091-15.104 6.229-8.32 8.235-8.32 21.845 0 30.165l128 128c8.32 8.235 21.845 8.235 30.165 0 8.32-8.32 8.32-21.931 0-30.165l-128-128c-4.139-4.139-9.557-6.229-15.061-6.229zM512 438.315c-36.48 0-66.133 29.653-66.133 66.219 0 36.437 29.653 66.176 66.133 66.176s66.133-29.653 66.133-66.176c0.043-36.523-29.653-66.219-66.133-66.219zM512 528c-12.928 0-23.467-10.539-23.467-23.509 0-13.056 10.539-23.552 23.467-23.552s23.467 10.539 23.467 23.552c0.043 12.928-10.539 23.509-23.467 23.509zM277.333 76.757c-3.2 0-6.443 0.768-9.515 2.261-10.539 5.248-14.805 18.091-9.557 28.587l42.667 85.333c5.291 10.496 18.091 15.019 28.629 9.685s14.805-18.176 9.557-28.672l-42.667-85.333c-3.797-7.552-11.264-11.861-19.115-11.861zM746.667 76.757c-7.851 0-15.317 4.352-19.072 11.733l-42.667 85.333c-5.333 10.581-0.981 23.339 9.557 28.672s23.381 0.853 28.629-9.685l42.667-85.333c5.291-10.496 0.896-23.339-9.557-28.587-3.072-1.408-6.315-2.133-9.557-2.133z" />
<glyph unicode="&#xe919;" glyph-name="alarm-clock" d="M591.829 106.667c-176.469 0-320 143.488-320 320s143.531 320 320 320 320-143.488 320-320-143.531-320-320-320zM591.829 704c-152.917 0-277.333-124.416-277.333-277.333s124.416-277.333 277.333-277.333 277.333 124.416 277.333 277.333-124.416 277.333-277.333 277.333zM1009.92 490.667c-9.899 0-18.773 6.955-20.864 17.067-19.669 96.939-74.368 183.339-154.027 243.2-9.429 7.083-11.307 20.437-4.267 29.909 7.083 9.387 20.437 11.392 29.824 4.224 88.021-66.091 148.437-161.536 170.197-268.8 2.347-11.563-5.12-22.827-16.683-25.173-1.323-0.299-2.773-0.427-4.181-0.427zM335.829 63.915c-4.437 0-8.96 1.365-12.8 4.352-33.963 25.6-64.085 55.723-89.557 89.6-7.083 9.515-5.205 22.784 4.224 29.867 9.429 7.125 22.827 5.205 29.867-4.309 23.083-30.677 50.347-57.856 81.067-81.024 9.472-7.083 11.349-20.437 4.267-29.867-4.224-5.717-10.624-8.619-17.067-8.619zM890.496 384h128v-42.667h-128v42.667zM634.496 128h42.667v-128h-42.667v128zM207.829 469.333h85.333v-42.667h-85.333v42.667zM570.496 704c-11.733 0-21.333 9.6-21.333 21.333v42.667c0 11.733 9.6 21.333 21.333 21.333 11.776 0 21.333-9.6 21.333-21.333v-42.667c0-11.733-9.557-21.333-21.333-21.333zM719.829 277.333c-5.461 0-10.923 2.091-15.104 6.229l-128 128c-8.32 8.235-8.32 21.845 0 30.165 8.277 8.235 21.845 8.235 30.165 0l128-128c8.277-8.32 8.277-21.931 0-30.165-4.139-4.139-9.6-6.229-15.061-6.229zM591.829 405.333c-5.461 0-10.923 2.091-15.104 6.229-8.32 8.235-8.32 21.845 0 30.165l85.333 85.333c8.277 8.235 21.845 8.235 30.165 0 8.277-8.32 8.277-21.931 0-30.165l-85.333-85.333c-4.139-4.139-9.6-6.229-15.061-6.229zM783.829 768c-11.733 0-21.333 9.6-21.333 21.333 0 105.813-86.144 192-192 192-105.813 0-192-86.187-192-192 0-11.733-9.557-21.333-21.333-21.333-11.733 0-21.333 9.6-21.333 21.333 0 129.365 105.259 234.667 234.667 234.667s234.667-105.301 234.667-234.667c0-11.733-9.557-21.333-21.333-21.333zM762.496 768h-426.667c-11.733 0-21.333 9.6-21.333 21.333s9.6 21.333 21.333 21.333h426.667c11.776 0 21.333-9.6 21.333-21.333s-9.557-21.333-21.333-21.333zM227.371 215.083c-129.408 0-234.667 105.301-234.667 234.667s105.259 234.667 234.667 234.667c11.776 0 21.333-9.6 21.333-21.333s-9.557-21.333-21.333-21.333c-105.813 0-192-86.187-192-192s86.187-192 192-192c11.776 0 21.333-9.6 21.333-21.333s-9.515-21.333-21.333-21.333zM229.163 234.667c-11.733 0-21.333 9.6-21.333 21.333v426.667c0 11.733 9.6 21.333 21.333 21.333 11.776 0 21.333-9.6 21.333-21.333v-426.667c0-11.733-9.557-21.333-21.333-21.333z" />
<glyph unicode="&#xe91a;" glyph-name="alarm-clock-2" d="M1002.667 106.709h-981.333c-11.776 0-21.333 9.6-21.333 21.333v512c0 11.733 9.557 21.333 21.333 21.333h981.333c11.733 0 21.333-9.6 21.333-21.333v-512c0-11.733-9.6-21.333-21.333-21.333zM42.667 149.376h938.667v469.333h-938.667v-469.333zM170.667 106.709h42.667v-42.667h-42.667v42.667zM810.667 106.709h42.667v-42.667h-42.667v42.667zM832 234.709h-640c-11.776 0-21.333 9.6-21.333 21.333v256c0 11.733 9.557 21.333 21.333 21.333h640c11.733 0 21.333-9.6 21.333-21.333v-256c0-11.733-9.6-21.333-21.333-21.333zM213.333 277.376h597.333v213.333h-597.333v-213.333zM682.667 618.709h-42.667c0 70.571-57.429 128-128 128s-128-57.429-128-128h-42.667c0 94.123 76.544 170.667 170.667 170.667s170.667-76.544 170.667-170.667zM826.923 682.709c-9.216 0-17.707 6.016-20.437 15.232-38.485 129.152-159.573 219.435-294.485 219.435s-256-90.24-294.485-219.435c-3.371-11.307-15.147-17.579-26.539-14.379-11.307 3.413-17.749 15.189-14.336 26.581 43.819 147.157 181.717 249.813 335.36 249.813 153.685 0 291.541-102.741 335.317-249.813 3.413-11.392-3.029-23.168-14.336-26.581-1.963-0.555-4.053-0.853-6.059-0.853z" />
<glyph unicode="&#xe91b;" glyph-name="alien" d="M512 309.504c-287.104 0-512 126.037-512 286.933s224.896 286.976 512 286.976c287.104 0 512-126.037 512-287.019 0-160.853-224.896-286.891-512-286.891zM512 840.661c-258.773 0-469.333-109.568-469.333-244.267s210.56-244.352 469.333-244.352c258.731 0 469.333 109.568 469.333 244.352 0 134.699-210.603 244.267-469.333 244.267zM554.667 596.437c0-23.564-19.103-42.667-42.667-42.667s-42.667 19.103-42.667 42.667c0 23.564 19.103 42.667 42.667 42.667s42.667-19.103 42.667-42.667zM512 425.771c-94.123 0-170.667 76.629-170.667 170.667 0 94.165 76.544 170.667 170.667 170.667s170.667-76.501 170.667-170.667c0-94.123-76.544-170.667-170.667-170.667zM512 724.437c-70.571 0-128-57.429-128-128 0-70.485 57.429-128 128-128s128 57.515 128 128c0 70.571-57.429 128-128 128zM128 42.667h-42.667c0 94.123 76.544 170.667 170.667 170.667h45.909c45.269 0 82.091 36.821 82.091 82.091v45.909h42.667v-45.909c0-68.779-55.979-124.757-124.757-124.757h-45.909c-70.571 0-128-57.429-128-128zM938.667 42.667h-42.667c0 70.571-57.429 128-128 128h-45.909c-68.736 0-124.757 55.979-124.757 124.757v45.909h42.667v-45.909c0-45.269 36.821-82.091 82.091-82.091h45.909c94.123 0 170.667-76.544 170.667-170.667zM64 704c-11.776 0-21.333 9.557-21.333 21.333v85.333c0 94.123 76.544 170.667 170.667 170.667h42.667c11.776 0 21.333-9.557 21.333-21.333s-9.557-21.333-21.333-21.333h-42.667c-70.571 0-128-57.429-128-128v-85.333c0-11.776-9.557-21.333-21.333-21.333zM960 704c-11.733 0-21.333 9.557-21.333 21.333v85.333c0 59.051-27.947 128-106.667 128h-64c-11.733 0-21.333 9.557-21.333 21.333s9.6 21.333 21.333 21.333h64c89.301 0 149.333-68.565 149.333-170.667v-85.333c0-11.776-9.6-21.333-21.333-21.333z" />
<glyph unicode="&#xe91c;" glyph-name="alien-2" d="M512 0c-275.755 0-512 351.915-512 640 0 247.637 181.845 384 512 384s512-136.363 512-384c0-288.085-236.245-640-512-640zM512 981.333c-214.101 0-469.333-59.221-469.333-341.333 0-268.885 216.576-597.333 469.333-597.333s469.333 328.448 469.333 597.333c0 282.112-255.232 341.333-469.333 341.333zM607.872 496.213h-0.256c-11.605 0-21.077 9.344-21.333 20.907-1.195 61.867 26.667 126.805 76.459 178.176 52.352 54.059 120.576 85.419 187.221 86.229 6.059-0.512 11.477-2.347 15.488-6.357 4.053-4.181 6.272-9.771 6.101-15.573-3.968-132.949-134.571-263.381-263.68-263.381zM826.539 736.896c-47.616-6.784-95.061-32-133.163-71.424-35.755-36.779-58.112-81.408-63.275-125.141 91.307 13.056 180.693 102.571 196.437 196.565zM423.552 496.213h-0.256c-129.152 0-259.755 130.475-263.723 263.339-0.171 5.803 2.048 11.52 6.101 15.573 4.096 4.139 10.027 6.272 15.488 6.357 66.645-0.896 134.869-32.256 187.221-86.229 49.792-51.371 77.653-116.309 76.459-178.176-0.213-11.52-9.685-20.864-21.291-20.864zM204.587 736.896c15.744-93.995 105.131-183.637 196.437-196.437-5.205 43.691-27.563 88.235-63.317 125.141-38.059 39.296-85.504 64.512-133.12 71.296zM448 277.333c-11.776 0-21.333 9.557-21.333 21.333v42.667c0 11.776 9.557 21.333 21.333 21.333s21.333-9.557 21.333-21.333v-42.667c0-11.776-9.557-21.333-21.333-21.333zM576 277.333c-11.733 0-21.333 9.557-21.333 21.333v42.667c0 11.776 9.6 21.333 21.333 21.333s21.333-9.557 21.333-21.333v-42.667c0-11.776-9.6-21.333-21.333-21.333z" />
<glyph unicode="&#xe91d;" glyph-name="align-center" d="M981.333 746.667h-938.667c-11.776 0-21.333 9.6-21.333 21.333s9.557 21.333 21.333 21.333h938.667c11.733 0 21.333-9.6 21.333-21.333s-9.6-21.333-21.333-21.333zM853.333 618.667h-725.333c-11.776 0-21.333 9.6-21.333 21.333s9.557 21.333 21.333 21.333h725.333c11.733 0 21.333-9.6 21.333-21.333s-9.6-21.333-21.333-21.333zM682.667 490.667h-341.333c-11.776 0-21.333 9.6-21.333 21.333s9.557 21.333 21.333 21.333h341.333c11.733 0 21.333-9.6 21.333-21.333s-9.6-21.333-21.333-21.333zM810.667 362.667h-640c-11.776 0-21.333 9.6-21.333 21.333s9.557 21.333 21.333 21.333h640c11.733 0 21.333-9.6 21.333-21.333s-9.6-21.333-21.333-21.333zM981.333 234.667h-938.667c-11.776 0-21.333 9.6-21.333 21.333s9.557 21.333 21.333 21.333h938.667c11.733 0 21.333-9.6 21.333-21.333s-9.6-21.333-21.333-21.333z" />
<glyph unicode="&#xe91e;" glyph-name="align-justify-all" d="M981.333 746.667h-938.667c-11.776 0-21.333 9.6-21.333 21.333s9.557 21.333 21.333 21.333h938.667c11.733 0 21.333-9.6 21.333-21.333s-9.6-21.333-21.333-21.333zM981.333 618.667h-938.667c-11.776 0-21.333 9.6-21.333 21.333s9.557 21.333 21.333 21.333h938.667c11.733 0 21.333-9.6 21.333-21.333s-9.6-21.333-21.333-21.333zM981.333 490.667h-938.667c-11.776 0-21.333 9.6-21.333 21.333s9.557 21.333 21.333 21.333h938.667c11.733 0 21.333-9.6 21.333-21.333s-9.6-21.333-21.333-21.333zM981.333 362.667h-938.667c-11.776 0-21.333 9.6-21.333 21.333s9.557 21.333 21.333 21.333h938.667c11.733 0 21.333-9.6 21.333-21.333s-9.6-21.333-21.333-21.333zM981.333 234.667h-938.667c-11.776 0-21.333 9.6-21.333 21.333s9.557 21.333 21.333 21.333h938.667c11.733 0 21.333-9.6 21.333-21.333s-9.6-21.333-21.333-21.333z" />
<glyph unicode="&#xe91f;" glyph-name="align-justify-center" d="M981.333 746.667h-938.667c-11.776 0-21.333 9.6-21.333 21.333s9.557 21.333 21.333 21.333h938.667c11.733 0 21.333-9.6 21.333-21.333s-9.6-21.333-21.333-21.333zM981.333 618.667h-938.667c-11.776 0-21.333 9.6-21.333 21.333s9.557 21.333 21.333 21.333h938.667c11.733 0 21.333-9.6 21.333-21.333s-9.6-21.333-21.333-21.333zM981.333 490.667h-938.667c-11.776 0-21.333 9.6-21.333 21.333s9.557 21.333 21.333 21.333h938.667c11.733 0 21.333-9.6 21.333-21.333s-9.6-21.333-21.333-21.333zM981.333 362.667h-938.667c-11.776 0-21.333 9.6-21.333 21.333s9.557 21.333 21.333 21.333h938.667c11.733 0 21.333-9.6 21.333-21.333s-9.6-21.333-21.333-21.333zM768 234.667h-512c-11.776 0-21.333 9.6-21.333 21.333s9.557 21.333 21.333 21.333h512c11.733 0 21.333-9.6 21.333-21.333s-9.6-21.333-21.333-21.333z" />
<glyph unicode="&#xe920;" glyph-name="align-justify-left" d="M981.333 746.667h-938.667c-11.776 0-21.333 9.6-21.333 21.333s9.557 21.333 21.333 21.333h938.667c11.733 0 21.333-9.6 21.333-21.333s-9.6-21.333-21.333-21.333zM981.333 618.667h-938.667c-11.776 0-21.333 9.6-21.333 21.333s9.557 21.333 21.333 21.333h938.667c11.733 0 21.333-9.6 21.333-21.333s-9.6-21.333-21.333-21.333zM981.333 490.667h-938.667c-11.776 0-21.333 9.6-21.333 21.333s9.557 21.333 21.333 21.333h938.667c11.733 0 21.333-9.6 21.333-21.333s-9.6-21.333-21.333-21.333zM981.333 362.667h-938.667c-11.776 0-21.333 9.6-21.333 21.333s9.557 21.333 21.333 21.333h938.667c11.733 0 21.333-9.6 21.333-21.333s-9.6-21.333-21.333-21.333zM981.333 234.667h-512c-11.776 0-21.333 9.6-21.333 21.333s9.557 21.333 21.333 21.333h512c11.733 0 21.333-9.6 21.333-21.333s-9.6-21.333-21.333-21.333z" />
<glyph unicode="&#xe921;" glyph-name="align-justify-right" d="M981.333 746.667h-938.667c-11.776 0-21.333 9.6-21.333 21.333s9.557 21.333 21.333 21.333h938.667c11.733 0 21.333-9.6 21.333-21.333s-9.6-21.333-21.333-21.333zM981.333 618.667h-938.667c-11.776 0-21.333 9.6-21.333 21.333s9.557 21.333 21.333 21.333h938.667c11.733 0 21.333-9.6 21.333-21.333s-9.6-21.333-21.333-21.333zM981.333 490.667h-938.667c-11.776 0-21.333 9.6-21.333 21.333s9.557 21.333 21.333 21.333h938.667c11.733 0 21.333-9.6 21.333-21.333s-9.6-21.333-21.333-21.333zM981.333 362.667h-938.667c-11.776 0-21.333 9.6-21.333 21.333s9.557 21.333 21.333 21.333h938.667c11.733 0 21.333-9.6 21.333-21.333s-9.6-21.333-21.333-21.333zM554.667 234.667h-512c-11.776 0-21.333 9.6-21.333 21.333s9.557 21.333 21.333 21.333h512c11.733 0 21.333-9.6 21.333-21.333s-9.6-21.333-21.333-21.333z" />
<glyph unicode="&#xe922;" glyph-name="align-left" d="M981.333 746.667h-938.667c-11.776 0-21.333 9.6-21.333 21.333s9.557 21.333 21.333 21.333h938.667c11.733 0 21.333-9.6 21.333-21.333s-9.6-21.333-21.333-21.333zM981.333 618.667h-725.333c-11.776 0-21.333 9.6-21.333 21.333s9.557 21.333 21.333 21.333h725.333c11.733 0 21.333-9.6 21.333-21.333s-9.6-21.333-21.333-21.333zM981.333 490.667h-341.333c-11.733 0-21.333 9.6-21.333 21.333s9.6 21.333 21.333 21.333h341.333c11.733 0 21.333-9.6 21.333-21.333s-9.6-21.333-21.333-21.333zM981.333 362.667h-640c-11.776 0-21.333 9.6-21.333 21.333s9.557 21.333 21.333 21.333h640c11.733 0 21.333-9.6 21.333-21.333s-9.6-21.333-21.333-21.333zM981.333 234.667h-938.667c-11.776 0-21.333 9.6-21.333 21.333s9.557 21.333 21.333 21.333h938.667c11.733 0 21.333-9.6 21.333-21.333s-9.6-21.333-21.333-21.333z" />
<glyph unicode="&#xe923;" glyph-name="align-right" d="M1002.667 746.667h-981.333c-11.776 0-21.333 9.6-21.333 21.333s9.557 21.333 21.333 21.333h981.333c11.733 0 21.333-9.6 21.333-21.333s-9.6-21.333-21.333-21.333zM789.333 618.667h-768c-11.776 0-21.333 9.6-21.333 21.333s9.557 21.333 21.333 21.333h768c11.733 0 21.333-9.6 21.333-21.333s-9.6-21.333-21.333-21.333zM405.333 490.667h-384c-11.776 0-21.333 9.6-21.333 21.333s9.557 21.333 21.333 21.333h384c11.776 0 21.333-9.6 21.333-21.333s-9.557-21.333-21.333-21.333zM704 362.667h-682.667c-11.776 0-21.333 9.6-21.333 21.333s9.557 21.333 21.333 21.333h682.667c11.733 0 21.333-9.6 21.333-21.333s-9.6-21.333-21.333-21.333zM576 234.667h-554.667c-11.776 0-21.333 9.6-21.333 21.333s9.557 21.333 21.333 21.333h554.667c11.733 0 21.333-9.6 21.333-21.333s-9.6-21.333-21.333-21.333z" />
<glyph unicode="&#xe924;" glyph-name="alligator" d="M124.459 560.896c-35.285 0-64 28.672-64 64s28.715 64 64 64 64-28.672 64-64-28.715-64-64-64zM124.459 646.229c-11.776 0-21.333-9.643-21.333-21.333 0-11.776 9.557-21.333 21.333-21.333s21.333 9.557 21.333 21.333-9.643 21.333-21.333 21.333zM917.333 234.667h-896c-11.776 0-21.333 9.6-21.333 21.333v368c0 45.184 0 165.333 128 165.333 73.771 0 121.856-48.512 129.067-128h586.624c8.832 24.875 32.555 42.667 60.331 42.667 27.819 0 51.584-17.792 60.416-42.667h38.229c11.733 0 21.333-9.6 21.333-21.333 0-82.688-66.603-149.333-148.437-149.333h-436.565l-49.792-85.333h401.024c81.835 0 148.437-66.603 148.437-148.437 0-11.819-9.6-22.229-21.333-22.229zM42.667 277.333h851.371c-9.557 48.597-52.437 85.333-103.808 85.333h-438.229c-7.637 0-14.677 4.096-18.517 10.709-3.797 6.613-3.755 14.72 0.043 21.376l74.667 128c3.84 6.485 10.837 10.581 18.432 10.581h448.896c51.328 0 94.251 36.736 103.893 85.333h-32.725c-11.776 0-21.333 9.6-21.333 21.333s-9.6 21.333-21.333 21.333c-11.776 0-21.333-9.6-21.333-21.333s-9.6-21.333-21.333-21.333h-624.768c-11.776 0-21.333 9.6-21.333 21.333 0 68.736-31.019 106.667-87.339 106.667-78.763 0-85.333-60.629-85.333-122.667l0.085-346.667zM874.667 426.667c-11.733 0-21.333 9.515-21.333 21.333v42.667c0 11.733 9.6 21.333 21.333 21.333s21.333-9.6 21.333-21.333v-42.667c0-11.819-9.6-21.333-21.333-21.333zM789.333 384c-11.733 0-21.333 9.515-21.333 21.333v42.667c0 11.733 9.6 21.333 21.333 21.333s21.333-9.6 21.333-21.333v-42.667c0-11.819-9.6-21.333-21.333-21.333z" />
<glyph unicode="&#xe925;" glyph-name="alpha" d="M349.397 84.309c-186.795 0-333.141 151.851-333.141 345.685 0 220.032 124.459 346.24 341.547 346.24 155.861 0 231.125-123.264 282.069-255.659v397.781c0 11.776 9.557 21.333 21.333 21.333s21.333-9.557 21.333-21.333v-489.643c0-9.771-0.384-19.413-1.109-28.971 36.821-113.195 69.248-209.92 130.347-209.92 105.899 0 153.344 79.104 153.344 157.44 0 11.691 9.6 21.333 21.333 21.333s21.333-9.643 21.333-21.333c0-117.845-80.597-200.107-196.011-200.107-74.283 0-112.811 72.235-146.987 168.192-44.416-135.765-167.168-231.040-315.392-231.040zM357.803 733.525c-260.053 0-298.88-190.208-298.88-303.573 0-169.813 127.616-303.019 290.475-303.019 151.851 0 273.024 115.2 288.768 267.947-51.797 159.403-111.104 338.645-280.363 338.645z" />
<glyph unicode="&#xe926;" glyph-name="ambulance" d="M206.208 168.875c-58.795 0-106.667 47.829-106.667 106.667s47.872 106.667 106.667 106.667 106.667-47.829 106.667-106.667-47.829-106.667-106.667-106.667zM206.208 339.541c-35.285 0-64-28.715-64-64s28.715-64 64-64 64 28.715 64 64-28.672 64-64 64zM846.208 168.875c-58.795 0-106.667 47.829-106.667 106.667s47.872 106.667 106.667 106.667 106.667-47.829 106.667-106.667-47.829-106.667-106.667-106.667zM846.208 339.541c-35.285 0-64-28.715-64-64s28.715-64 64-64 64 28.715 64 64-28.672 64-64 64zM640 236.459h-256c-11.776 0-21.333 9.6-21.333 21.333s9.557 21.333 21.333 21.333h256c11.733 0 21.333-9.6 21.333-21.333s-9.6-21.333-21.333-21.333zM1002.667 215.125c-11.733 0-21.333 9.6-21.333 21.333v512h-725.333c-11.776 0-21.333 9.6-21.333 21.333s9.557 21.333 21.333 21.333h746.667c11.733 0 21.333-9.6 21.333-21.333v-533.333c0-11.733-9.6-21.333-21.333-21.333zM21.333 215.125c-11.776 0-21.333 9.6-21.333 21.333v254.165c0 8.064 4.565 15.445 11.776 19.072l73.557 36.779v73.984c0 94.123 76.544 170.667 170.667 170.667 11.776 0 21.333-9.6 21.333-21.333s-9.557-21.333-21.333-21.333c-70.571 0-128-57.429-128-128v-87.125c0-8.021-4.565-15.445-11.776-19.072l-73.557-36.821v-240.981c0-11.733-9.557-21.333-21.333-21.333zM320 535.125h-128c-11.776 0-21.333 9.6-21.333 21.333 0 99.2 98.645 153.344 149.333 153.344 11.776 0 21.333-9.557 21.333-21.333v-132.011c0-11.733-9.557-21.333-21.333-21.333zM215.552 577.792h83.115v85.504c-31.147-9.941-73.045-38.571-83.115-85.504zM384 769.792h-42.667c-11.776 0-21.333 9.6-21.333 21.333v42.667c0 11.733 9.557 21.333 21.333 21.333h42.667c11.776 0 21.333-9.6 21.333-21.333v-42.667c0-11.733-9.557-21.333-21.333-21.333zM789.333 407.125h-85.333c-11.733 0-21.333 9.6-21.333 21.333v64h-64c-11.733 0-21.333 9.6-21.333 21.333v85.333c0 11.733 9.6 21.333 21.333 21.333h64v64c0 11.733 9.6 21.333 21.333 21.333h85.333c11.733 0 21.333-9.6 21.333-21.333v-64h64c11.733 0 21.333-9.6 21.333-21.333v-85.333c0-11.733-9.6-21.333-21.333-21.333h-64v-64c0-11.733-9.6-21.333-21.333-21.333zM725.333 449.792h42.667v64c0 11.733 9.6 21.333 21.333 21.333h64v42.667h-64c-11.733 0-21.333 9.6-21.333 21.333v64h-42.667v-64c0-11.733-9.6-21.333-21.333-21.333h-64v-42.667h64c11.733 0 21.333-9.6 21.333-21.333v-64z" />
<glyph unicode="&#xe927;" glyph-name="amx" d="M670.763 539.435c-118.997-6.997-226.091-20.181-319.445-37.077l21.163 127.232h72.917l70.229-76.715 97.792 76.715h178.688l49.749-60.715 70.229 60.715h111.915l-98.091-85.163c-59.264 1.067-116.437 0.597-171.264-1.152l-70.016 80.085-13.867-83.925zM335.104 405.333l-24.149 62.208c-29.056-5.163-57.301-11.051-84.693-17.664l20.011-55.467h171.563l16.64 90.837c-29.568-3.413-59.008-7.253-87.979-11.733l-11.392-68.181zM763.989 504.021l-115.328-95.317 14.677 93.013c-28.203-1.024-57.045-2.389-86.229-4.181l-17.92-103.083h186.667l79.104 66.859 59.563-66.859h111.104l-84.48 108.587c-42.581 0.981-92.459 1.536-147.157 0.981zM301.184 492.757c-136.576-28.117-239.573-63.915-301.184-98.347l157.355 235.179h90.667l53.163-136.832zM211.328 491.349l-20.651 57.344-36.651-57.344h57.301z" />
<glyph unicode="&#xe928;" glyph-name="anchor" d="M511.531 0c-201.131 0-364.8 163.669-364.8 364.843h42.667c0-177.664 144.512-322.176 322.133-322.176s322.133 144.512 322.133 322.176h42.667c0-201.173-163.627-364.843-364.8-364.843zM509.995 834.133c-52.352 0-94.933 42.581-94.933 94.933s42.581 94.933 94.933 94.933c52.352 0 94.933-42.581 94.933-94.933s-42.581-94.933-94.933-94.933zM509.995 981.333c-28.8 0-52.267-23.467-52.267-52.267s23.467-52.267 52.267-52.267 52.267 23.467 52.267 52.267c0 28.8-23.424 52.267-52.267 52.267zM508.075 22.016c-11.776 0-21.333 9.6-21.333 21.333v810.667c0 11.776 9.557 21.333 21.333 21.333s21.333-9.557 21.333-21.333v-810.667c0-11.776-9.557-21.333-21.333-21.333zM657.408 768.683h-298.667c-11.776 0-21.333 9.557-21.333 21.333s9.557 21.333 21.333 21.333h298.667c11.733 0 21.333-9.557 21.333-21.333s-9.557-21.333-21.333-21.333zM263.467 342.016c-0.299 0-0.555 0-0.853 0h-189.056c-7.637 0-14.677 4.096-18.475 10.667-3.797 6.656-3.797 14.763 0 21.333l94.549 163.712c3.797 6.613 10.837 10.667 18.475 10.667v0c7.637 0 14.677-4.053 18.475-10.667l91.947-159.275c3.883-3.883 6.272-9.216 6.272-15.104 0-11.776-9.6-21.333-21.333-21.333zM110.507 384.683h115.157l-57.557 99.755-57.6-99.755zM950.4 342.016c-0.341 0-0.597 0-0.853 0h-189.099c-7.637 0-14.677 4.096-18.517 10.667-3.755 6.656-3.755 14.763 0 21.333l94.592 163.712c3.797 6.613 10.837 10.667 18.475 10.667v0c7.637 0 14.72-4.053 18.475-10.667l91.989-159.275c3.84-3.883 6.229-9.216 6.229-15.104 0.043-11.776-9.515-21.333-21.291-21.333zM797.44 384.683h115.115l-57.557 99.755-57.557-99.755z" />
<glyph unicode="&#xe929;" glyph-name="anchor-2" d="M511.957 20.437c-211.712 0-384 172.245-384 384 0 11.776 9.557 21.333 21.333 21.333s21.333-9.557 21.333-21.333c0-188.203 153.131-341.333 341.333-341.333s341.333 153.131 341.333 341.333c0 11.776 9.557 21.333 21.333 21.333s21.333-9.557 21.333-21.333c0-211.712-172.288-384-384-384zM511.957 20.437c-11.776 0-21.333 9.557-21.333 21.333v768c0 11.776 9.557 21.333 21.333 21.333s21.333-9.557 21.333-21.333v-768c0-11.776-9.557-21.333-21.333-21.333zM1000.619 320.469c-4.053 0-8.107 1.024-11.733 3.541l-114.219 75.52-114.219-75.563c-9.856-6.528-23.083-3.797-29.568 6.059-6.443 9.771-3.797 23.040 6.059 29.525l125.995 83.328c7.083 4.651 16.427 4.651 23.509 0l125.995-83.328c9.813-6.485 12.501-19.755 6.059-29.525-4.181-6.187-10.965-9.557-17.877-9.557zM275.285 320.469c-4.053 0-8.107 1.024-11.733 3.541l-114.219 75.52-114.219-75.563c-9.856-6.528-23.125-3.797-29.568 6.059-6.485 9.771-3.797 23.040 6.016 29.525l125.995 83.328c7.125 4.651 16.427 4.651 23.552 0l125.995-83.328c9.813-6.485 12.501-19.755 6.016-29.525-4.139-6.187-10.923-9.557-17.835-9.557zM511.957 790.229c-58.795 0-106.667 47.829-106.667 106.667s47.872 106.667 106.667 106.667 106.667-47.829 106.667-106.667-47.872-106.667-106.667-106.667zM511.957 960.896c-35.285 0-64-28.715-64-64s28.715-64 64-64 64 28.715 64 64-28.715 64-64 64zM618.624 681.771h-213.333c-11.776 0-21.333 9.557-21.333 21.333s9.557 21.333 21.333 21.333h213.333c11.776 0 21.333-9.557 21.333-21.333s-9.557-21.333-21.333-21.333z" />
<glyph unicode="&#xe92a;" glyph-name="android" d="M646.656 185.771h-269.355c-78.677 0-142.677 64-142.677 142.677v347.989c0 11.776 9.557 21.333 21.333 21.333h512c11.776 0 21.333-9.557 21.333-21.333v-347.989c0.043-78.677-63.957-142.677-142.635-142.677zM277.333 655.104v-326.656c0-55.083 44.885-100.011 100.011-100.011h269.355c55.125 0 100.011 44.843 100.011 100.011v326.656h-469.376zM384 18.645c-37.077 0-64 24.619-64 58.667v151.083h42.667v-151.083c0-14.933 16.341-16 21.333-16s21.333 1.067 21.333 16v151.083h42.667v-151.083c0-33.963-26.923-58.667-64-58.667zM640 18.645c-37.077 0-64 24.619-64 58.667v151.083h42.667v-151.083c0-14.933 16.341-16 21.333-16s21.333 1.067 21.333 16v151.083h42.667v-151.083c0-33.963-26.923-58.667-64-58.667zM750.592 740.437h-477.184c-6.101 0-11.904 2.645-15.957 7.168s-5.973 10.667-5.205 16.683c16.64 138.155 111.317 217.472 259.755 217.472s243.115-79.232 259.755-217.472c0.768-6.016-1.152-12.16-5.205-16.683s-9.899-7.168-15.957-7.168zM298.496 783.104h427.008c-28.16 135.083-144.299 155.947-213.504 155.947s-185.344-20.864-213.504-155.947zM654.635 902.997c-4.523 0-9.131 1.451-13.013 4.437-9.387 7.168-11.136 20.565-3.968 29.909l45.909 59.691c7.168 9.344 20.523 11.051 29.909 3.925 9.344-7.211 11.093-20.565 3.925-29.952l-45.909-59.691c-4.139-5.504-10.496-8.32-16.853-8.32zM359.211 902.997c-6.357 0-12.715 2.859-16.896 8.32l-45.867 59.648c-7.211 9.387-5.461 22.784 3.925 29.952 9.301 7.125 22.613 5.419 29.909-3.925l45.867-59.691c7.168-9.301 5.419-22.699-3.883-29.867-3.925-2.987-8.533-4.437-13.056-4.437zM896 356.437c-35.285 0-64 28.715-64 64v213.333c0 35.285 28.715 64 64 64s64-28.715 64-64v-213.333c0-35.328-28.715-64-64-64zM896 655.104c-11.563 0-21.333-9.771-21.333-21.333v-213.333c0-11.733 9.6-21.333 21.333-21.333s21.333 9.6 21.333 21.333v213.333c0 11.563-9.771 21.333-21.333 21.333zM128 356.437c-35.285 0-64 28.715-64 64v213.333c0 35.285 28.715 64 64 64s64-28.715 64-64v-213.333c0-35.328-28.715-64-64-64zM128 655.104c-11.563 0-21.333-9.771-21.333-21.333v-213.333c0-11.733 9.6-21.333 21.333-21.333s21.333 9.6 21.333 21.333v213.333c0 11.563-9.771 21.333-21.333 21.333z" />
<glyph unicode="&#xe92b;" glyph-name="android-store" d="M436.608 236.373c-29.995 0-52.608 20.907-52.608 48.768v207.36c0 27.776 23.211 48.768 54.016 48.768 10.923 0 21.504-2.688 30.677-8.021l186.325-103.509c18.432-10.667 28.757-26.155 28.757-42.88 0-15.403-9.088-29.483-24.917-38.656l-192.469-103.979c-8.619-5.077-19.115-7.851-29.781-7.851zM438.016 498.603c-3.712 0-11.349-1.493-11.349-6.101v-207.36c0-6.059 9.515-6.101 9.941-6.101 3.157 0 6.229 0.811 8.875 2.347l192.512 103.979c1.707 0.981 2.688 2.005 3.072 2.56-0.725-0.256-2.603 2.048-7.168 4.693l-186.283 103.509c-2.944 1.664-6.229 2.475-9.6 2.475zM960 0.341h-896c-11.776 0-21.333 9.557-21.333 21.333v725.333c0 11.733 9.557 21.333 21.333 21.333h896c11.733 0 21.333-9.6 21.333-21.333v-725.333c0-11.819-9.6-21.333-21.333-21.333zM85.333 43.008h853.333v682.667h-853.333v-682.667zM704 747.008c-11.733 0-21.333 9.557-21.333 21.333v68.437c0 79.531-76.544 144.213-170.667 144.213s-170.667-63.189-170.667-140.928v-71.765c0-11.776-9.557-21.333-21.333-21.333s-21.333 9.557-21.333 21.376v71.723c0 101.248 95.701 183.595 213.333 183.595s213.333-83.84 213.333-186.88v-68.437c0-11.819-9.6-21.333-21.333-21.333z" />
<glyph unicode="&#xe92c;" glyph-name="angel" d="M504.96 597.077c-82.347 0-149.333 66.987-149.333 149.333 0 82.304 66.987 149.333 149.333 149.333 82.389 0 149.333-67.029 149.333-149.333 0-82.389-66.944-149.333-149.333-149.333zM504.96 853.077c-58.795 0-106.667-47.872-106.667-106.667s47.872-106.667 106.667-106.667 106.667 47.872 106.667 106.667-47.829 106.667-106.667 106.667zM569.813 939.349h-128c-11.776 0-21.333 9.557-21.333 21.333s9.557 21.333 21.333 21.333h128c11.776 0 21.333-9.557 21.333-21.333s-9.515-21.333-21.333-21.333zM505.984 41.984c-86.229 0.512-240.683 6.229-308.693 39.595-7.339 3.584-11.947 11.008-11.947 19.157 0.171 184.576 106.496 467.072 210.645 559.659 8.789 7.851 22.229 7.083 30.123-1.792 7.851-8.789 7.040-22.272-1.792-30.123-92.672-82.432-190.763-341.547-196.096-513.792 49.621-18.517 149.205-29.355 277.76-29.995 128.341 0.725 227.84 11.563 277.504 29.995-5.333 172.16-103.424 431.317-196.096 513.792-8.747 7.808-9.6 21.333-1.749 30.123 7.893 8.832 21.248 9.6 30.165 1.792 104.064-92.629 210.432-375.083 210.603-559.659 0-8.107-4.651-15.573-11.989-19.157-68.011-33.323-222.464-39.168-308.437-39.595zM265.6 368.981c-1.152 0-2.347 0.085-3.541 0.256-69.163 11.563-121.643 45.355-155.904 100.352-79.744 127.744-34.816 322.005-11.819 399.616 5.888 19.84 22.955 33.835 43.563 35.755 20.523 1.792 39.979-8.832 49.365-27.307 49.92-98.261 154.24-195.627 227.712-212.48 11.477-2.645 18.688-14.080 16-25.6s-14.123-18.645-25.557-16c-86.955 19.968-199.509 123.093-256.213 234.709-1.408 2.731-4.352 4.437-7.381 4.096-3.115-0.299-5.675-2.389-6.528-5.333-44.501-150.059-41.813-286.464 7.125-364.885 27.563-44.117 70.229-71.253 126.805-80.811 11.605-1.963 19.456-12.971 17.493-24.576-1.877-10.368-10.923-17.792-21.12-17.792zM758.187 368.981c-10.155 0-19.243 7.381-20.992 17.749-1.92 11.648 5.931 22.656 17.493 24.661 56.576 9.429 99.243 36.651 126.848 80.768 48.896 78.379 51.584 214.869 7.083 364.971-0.853 2.944-3.328 5.035-6.4 5.291-2.987 0.213-6.101-1.323-7.509-4.053-56.747-111.701-169.259-214.784-256.085-234.709-11.52-2.603-22.955 4.48-25.6 16-2.645 11.477 4.523 22.955 16 25.557 73.515 16.896 177.835 114.176 227.755 212.437 9.344 18.432 28.416 29.227 49.323 27.221 20.437-1.792 37.675-15.787 43.563-35.669 22.997-77.611 67.925-271.957-11.819-399.659-34.261-54.955-86.741-88.661-155.819-100.267-1.451-0.213-2.688-0.299-3.84-0.299z" />
<glyph unicode="&#xe92d;" glyph-name="angel-smiley" d="M448 416.171c-11.776 0-21.333 9.557-21.333 21.333 0 23.509-19.157 42.667-42.667 42.667s-42.667-19.157-42.667-42.667c0-11.776-9.557-21.333-21.333-21.333s-21.333 9.557-21.333 21.333c0 47.061 38.272 85.333 85.333 85.333s85.333-38.272 85.333-85.333c0-11.776-9.557-21.333-21.333-21.333zM704 416.171c-11.733 0-21.333 9.557-21.333 21.333 0 23.509-19.157 42.667-42.667 42.667s-42.667-19.157-42.667-42.667c0-11.776-9.6-21.333-21.333-21.333s-21.333 9.557-21.333 21.333c0 47.061 38.229 85.333 85.333 85.333s85.333-38.272 85.333-85.333c0-11.776-9.6-21.333-21.333-21.333zM108.757 349.568c-3.84 0-7.723 0.981-11.221 3.2-28.715 17.792-56.363 37.376-82.176 58.325-9.131 7.424-10.581 20.864-3.157 30.037 7.424 9.088 20.864 10.539 30.037 3.157 24.405-19.883 50.603-38.357 77.781-55.168 10.027-6.229 13.099-19.413 6.912-29.355-4.053-6.613-11.051-10.197-18.176-10.197zM915.285 349.525c-7.125 0-14.123 3.584-18.219 10.112-6.187 10.027-3.072 23.125 6.912 29.355 27.093 16.811 53.333 35.413 77.909 55.339 9.173 7.424 22.571 5.973 29.995-3.157 7.424-9.173 6.016-22.571-3.157-30.037-25.941-21.077-53.675-40.704-82.261-58.453-3.499-2.091-7.339-3.157-11.179-3.157zM144.043 505.899c-4.437 0-8.875 1.365-12.672 4.181-41.387 30.635-79.104 66.304-112.085 106.027-7.509 9.045-6.272 22.528 2.773 30.080 9.003 7.509 22.485 6.272 30.037-2.688 30.805-37.077 66.005-70.357 104.661-98.987 9.472-7.040 11.477-20.395 4.437-29.824-4.139-5.76-10.581-8.789-17.152-8.789zM877.013 503.765c-6.571 0-13.099 3.029-17.237 8.747-6.997 9.515-4.907 22.869 4.565 29.824 39.851 29.227 76.032 63.147 107.563 101.205 7.552 9.045 20.992 10.325 29.995 2.688 9.088-7.509 10.325-20.992 2.773-30.037-33.749-40.661-72.448-77.099-115.115-108.373-3.797-2.731-8.192-4.053-12.544-4.053zM512 809.984c-125.653 0-220.459 45.867-220.459 106.667s94.763 106.667 220.459 106.667c125.653 0 220.459-45.867 220.459-106.667 0-60.757-94.805-106.667-220.459-106.667zM512 980.651c-108.501 0-177.792-37.888-177.792-64s69.248-64 177.792-64 177.792 37.888 177.792 64c0 26.155-69.291 64-177.792 64zM512 0.683c-188.203 0-341.333 153.131-341.333 341.333s153.131 341.333 341.333 341.333 341.333-153.131 341.333-341.333-153.131-341.333-341.333-341.333zM512 640.683c-164.693 0-298.667-133.973-298.667-298.667s133.973-298.667 298.667-298.667c164.651 0 298.667 133.973 298.667 298.667s-134.016 298.667-298.667 298.667zM512 128.683c-117.632 0-213.333 95.701-213.333 213.333 0 11.733 9.557 21.333 21.333 21.333s21.333-9.6 21.333-21.333c0-94.123 76.544-170.667 170.667-170.667s170.667 76.544 170.667 170.667c0 11.733 9.6 21.333 21.333 21.333s21.333-9.6 21.333-21.333c0-117.632-95.701-213.333-213.333-213.333zM512 0.683c-282.325 0-512 229.675-512 512 0 93.995 26.197 186.368 75.819 267.179 3.883 6.272 10.752 10.155 18.176 10.155v0c7.424 0 14.293-3.883 18.176-10.155 47.317-77.099 115.115-138.624 196.096-177.877 10.624-5.12 15.019-17.877 9.856-28.501s-17.877-15.061-28.501-9.813c-77.653 37.675-144.213 94.123-194.219 164.352-34.603-66.688-52.736-140.459-52.736-215.253 0-258.688 210.56-469.333 469.333-469.333 258.731 0 469.333 210.645 469.333 469.333 0 74.837-18.133 148.565-52.736 215.211-50.432-70.784-117.589-127.531-196.053-165.205-10.667-5.12-23.381-0.597-28.459 9.984-5.12 10.624-0.683 23.339 9.984 28.459 81.664 39.253 150.101 101.035 197.717 178.688 7.765 12.629 28.587 12.629 36.395 0 49.621-80.811 75.819-173.184 75.819-267.179 0-282.411-229.675-512.043-512-512.043z" />
<glyph unicode="&#xe92e;" glyph-name="angry" d="M236.715 213.333c-4.949 0-9.856 1.707-13.909 5.163-8.917 7.68-9.941 21.163-2.304 30.080 73.088 85.163 179.328 134.016 291.499 134.016 111.744 0 217.771-48.555 290.816-133.248 7.723-8.832 6.656-22.315-2.261-30.080-8.832-7.68-22.357-6.656-30.080 2.261-64.939 75.264-159.147 118.357-258.517 118.357-99.669 0-194.133-43.435-259.115-119.125-4.181-4.907-10.155-7.424-16.128-7.424zM512 0c-282.325 0-512 229.675-512 512s229.675 512 512 512 512-229.675 512-512-229.675-512-512-512zM512 981.333c-258.773 0-469.333-210.56-469.333-469.333 0-258.731 210.56-469.333 469.333-469.333 258.731 0 469.333 210.603 469.333 469.333 0 258.773-210.603 469.333-469.333 469.333zM426.667 746.667c-3.2 0-6.443 0.725-9.515 2.261l-170.667 85.333c-10.539 5.291-14.805 18.091-9.557 28.629 5.291 10.539 18.048 14.763 28.629 9.6l170.667-85.333c10.539-5.291 14.805-18.091 9.557-28.629-3.797-7.552-11.307-11.861-19.115-11.861zM597.333 746.667c-7.851 0-15.317 4.309-19.115 11.776-5.291 10.539-0.939 23.339 9.557 28.629l170.667 85.333c10.581 5.248 23.339 0.981 28.672-9.557 5.248-10.539 0.896-23.339-9.6-28.629l-170.667-85.333c-3.029-1.493-6.272-2.219-9.515-2.219zM320 512c-58.795 0-106.667 47.872-106.667 106.667s47.872 106.667 106.667 106.667 106.667-47.872 106.667-106.667-47.872-106.667-106.667-106.667zM320 682.667c-35.285 0-64-28.715-64-64s28.715-64 64-64 64 28.715 64 64-28.715 64-64 64zM704 512c-58.795 0-106.667 47.872-106.667 106.667s47.872 106.667 106.667 106.667 106.667-47.872 106.667-106.667-47.872-106.667-106.667-106.667zM704 682.667c-35.285 0-64-28.715-64-64s28.715-64 64-64 64 28.715 64 64-28.715 64-64 64z" />
<glyph unicode="&#xe92f;" glyph-name="apple" d="M684.672 9.984c-40.405 0-80 20.864-114.987 39.339-22.229 11.648-45.227 23.851-57.813 23.851-8.747 0-30.421-11.392-49.493-21.461-35.328-18.603-79.317-41.728-122.453-41.728-22.059 0-41.771 6.016-59.051 17.877-126.251 87.168-261.12 251.392-261.12 450.645 0 199.979 128.683 368.896 281.003 368.896 51.84 0 86.997-26.539 118.059-49.963 29.568-22.272 55.211-41.6 93.184-41.6s63.488 19.285 93.141 41.6c31.104 23.424 66.261 49.963 118.101 49.963 152.32 0 281.003-168.917 281.003-368.896 0-199.211-134.827-363.435-261.248-450.645-17.323-11.861-36.907-17.877-58.325-17.877zM511.872 115.84c23.125 0 48.384-13.355 77.653-28.757 43.648-23.083 95.573-47.232 128.981-24.064 117.419 81.024 242.731 232.832 242.731 415.488 0 176.853-109.184 326.229-238.336 326.229-37.589 0-63.019-19.157-92.416-41.344-31.104-23.552-66.517-50.219-118.827-50.219-52.267 0-87.595 26.667-118.741 50.219-29.397 22.144-54.827 41.301-92.373 41.301-129.195 0-238.379-149.376-238.379-326.229 0-182.699 125.397-334.464 242.731-415.488 34.603-23.979 93.355 3.328 137.344 26.453 28.203 14.805 50.261 26.411 69.632 26.411zM526.677 836.181c-6.571 0-12.8 3.029-16.896 8.277-4.139 5.333-5.504 12.331-3.669 18.859 1.749 6.144 43.904 150.656 167.808 150.656 19.328 0 39.765-3.712 60.587-11.093 10.155-3.584 16.171-14.293 13.653-24.832-20.267-89.344-165.931-140.629-221.013-141.909-0.128 0.043-0.299 0.043-0.469 0.043zM673.835 971.349c-60.416 0-96.171-51.797-113.493-87.211 49.323 12.459 114.688 45.483 138.325 84.608-8.491 1.707-16.853 2.603-24.832 2.603zM512.512 713.173c-11.733 0-21.333 9.6-21.333 21.333 0 192.299-41.003 213.333-128 213.333-11.733 0-21.333 9.6-21.333 21.333 0 11.776 9.6 21.333 21.333 21.333 129.152 0 170.667-62.208 170.667-256 0-11.776-9.557-21.333-21.333-21.333z" />
<glyph unicode="&#xe930;" glyph-name="apple-bite" d="M539.733 810.667c-5.931 0-11.563 2.432-15.573 6.784-4.565 4.949-6.571 11.776-5.376 18.475 10.624 57.429 59.477 166.059 167.808 166.059 15.019 0 30.805-2.048 46.976-6.144 10.496-2.688 17.323-12.757 15.915-23.509-12.075-90.795-152.448-155.179-207.104-161.493-1.024-0.128-1.792-0.171-2.645-0.171zM686.507 959.275c-68.352 0-101.589-58.88-116.139-97.835 48.213 16.853 110.464 55.851 130.56 97.024-4.907 0.555-9.728 0.811-14.421 0.811zM716.757 22.016v0c-28.757 0-53.419 14.251-79.488 29.355-28.928 16.725-58.752 33.963-97.536 33.963s-68.651-17.237-97.621-33.877c-26.112-15.061-50.773-29.312-79.531-29.312-18.432 0-35.84 5.845-53.163 17.835-125.824 87.253-260.352 251.392-260.352 450.688 0 217.771 165.12 369.579 313.301 369.579 68.053 0 129.963-28.928 180.139-83.968 124.416 96.512 253.056 109.397 351.019 37.589 8.32-6.229 11.136-17.493 6.4-26.795-8.661-17.067-13.013-34.773-13.013-52.523 0-4.352 0.683-8.533 1.237-12.715 1.237-8.704-2.688-19.925-10.283-24.235-37.504-21.077-60.8-60.416-60.8-102.656 0-60.245 45.483-110.507 105.813-116.949 7.253-0.768 13.483-5.163 16.853-11.691 3.285-6.528 2.901-14.251-0.853-20.437-11.435-18.944-17.067-39.296-17.067-60.331 0-35.712 16.427-69.291 45.099-92.117 8.021-6.315 10.283-17.536 5.589-26.624-46.080-87.893-118.144-168.448-202.752-226.944-17.323-12.032-34.645-17.835-52.992-17.835zM539.733 128c50.176 0 88.235-22.016 118.827-39.765 21.931-12.672 40.875-23.595 58.155-23.595v0c9.515 0 18.645 3.2 28.672 10.155 74.411 51.413 138.24 120.96 181.333 197.163-30.421 30.208-47.573 70.656-47.573 113.451 0 18.859 3.541 37.845 10.368 55.808-67.328 19.84-115.115 81.493-115.115 153.643 0 52.821 26.539 102.229 70.187 132.139-0.171 2.56-0.341 4.992-0.341 7.467 0 18.432 3.328 36.608 9.899 54.357-83.925 51.541-193.493 30.763-300.757-58.624-4.437-3.669-10.155-5.291-15.787-4.821-5.717 0.597-10.965 3.413-14.549 7.893-44.075 55.125-99.669 84.224-160.811 84.224-128 0-270.635-134.229-270.635-326.912 0-182.784 125.099-334.507 241.963-415.531 28.373-19.712 52.949-6.315 87.125 13.312 30.805 17.621 68.864 39.637 119.040 39.637z" />
<glyph unicode="&#xe931;" glyph-name="apple-store" d="M512 21.333c-270.549 0-490.667 220.117-490.667 490.667s220.117 490.667 490.667 490.667 490.667-220.117 490.667-490.667-220.117-490.667-490.667-490.667zM512 960c-247.040 0-448-200.96-448-448s200.96-448 448-448 448 200.96 448 448-200.96 448-448 448zM226.816 264.832c-2.859 0-5.76 0.597-8.491 1.792-8.021 3.456-13.099 11.477-12.843 20.224l3.584 119.552c0.085 2.688 0.683 5.333 1.792 7.851l146.133 336.896c2.261 5.205 6.443 9.301 11.733 11.349 5.248 2.091 11.136 1.963 16.341-0.256l81.28-35.285c5.205-2.261 9.259-6.443 11.349-11.733s1.963-11.136-0.256-16.341l-146.176-336.896c-1.067-2.517-2.603-4.736-4.523-6.613l-84.821-84.267c-4.139-4.139-9.6-6.272-15.104-6.272zM251.605 400.981l-1.835-61.995 43.947 43.648 136.021 313.557-42.155 18.347-135.979-313.557zM267.575 475.15l70.159-30.493-17.007-39.13-70.159 30.493 17.007 39.13zM356.417 678.024l68.022-29.521-16.986-39.138-68.022 29.521 16.986 39.138zM717.397 405.547c-5.333 0-10.581 2.005-14.592 5.803-103.68 97.024-109.227 284.757-101.248 324.011 0.896 4.437 3.584 17.877 16.427 22.613 10.923 4.011 20.736 3.157 45.739-24.576 45.227-50.091 127.403-176 115.2-293.845-0.896-8.021-6.229-14.976-13.781-17.792l-40.277-14.891c-2.432-0.853-4.949-1.323-7.467-1.323zM641.792 693.376c1.195-58.155 16.725-172.757 81.024-241.749l14.592 5.376c3.456 94.293-59.008 191.36-95.616 236.373zM792.405 264.619c-3.072 0-6.101 0.64-8.917 1.963-33.621 15.488-79.019 71.936-88.576 97.792-6.016 16.128-5.291 33.579 1.877 49.109 7.168 15.659 20.011 27.52 36.139 33.408 32.512 11.861 70.613-5.76 82.603-38.016 9.557-25.899 11.733-98.261-3.669-131.883-2.347-5.163-6.656-9.131-11.989-11.136-2.475-0.811-4.949-1.237-7.467-1.237zM755.2 408.235c-2.56 0-5.077-0.512-7.552-1.365-5.333-1.963-9.728-5.973-12.075-11.221-2.432-5.248-2.688-11.093-0.683-16.597 4.608-12.459 25.003-39.125 44.203-57.259 2.816 26.283 0.939 59.733-3.669 72.235-3.072 8.576-11.221 14.208-20.224 14.208zM737.445 559.251l14.797-40.017-90.519-33.47-14.797 40.017 90.519 33.47zM874.667 384h-64c-11.733 0-21.333 9.6-21.333 21.333s9.6 21.333 21.333 21.333h42.667v170.667h-128c-11.733 0-21.333 9.557-21.333 21.333s9.6 21.333 21.333 21.333h149.333c11.733 0 21.333-9.557 21.333-21.333v-213.333c0-11.733-9.6-21.333-21.333-21.333zM627.712 597.333h-201.045c-11.776 0-21.333 9.557-21.333 21.333s9.557 21.333 21.333 21.333h201.045c11.776 0 21.333-9.557 21.333-21.333s-9.515-21.333-21.333-21.333zM213.333 384h-64c-11.776 0-21.333 9.6-21.333 21.333v213.333c0 11.776 9.557 21.333 21.333 21.333h173.397c11.776 0 21.333-9.557 21.333-21.333s-9.557-21.333-21.333-21.333h-152.064v-170.667h42.667c11.776 0 21.333-9.6 21.333-21.333s-9.557-21.333-21.333-21.333zM716.544 384h-375.211c-11.776 0-21.333 9.6-21.333 21.333s9.557 21.333 21.333 21.333h375.211c11.776 0 21.333-9.6 21.333-21.333s-9.557-21.333-21.333-21.333z" />
<glyph unicode="&#xe932;" glyph-name="approved-window" d="M1002.667 85.333h-981.333c-11.776 0-21.333 9.6-21.333 21.333v810.667c0 11.733 9.557 21.333 21.333 21.333h981.333c11.733 0 21.333-9.6 21.333-21.333v-810.667c0-11.733-9.6-21.333-21.333-21.333zM42.667 128h938.667v768h-938.667v-768zM981.333 725.333h-938.667c-11.776 0-21.333 9.6-21.333 21.333s9.557 21.333 21.333 21.333h938.667c11.733 0 21.333-9.6 21.333-21.333s-9.6-21.333-21.333-21.333zM754.688 186.667c-82.389 0-149.333 66.987-149.333 149.333s66.944 149.333 149.333 149.333c82.347 0 149.333-66.987 149.333-149.333s-67.029-149.333-149.333-149.333zM754.688 442.667c-58.837 0-106.667-47.829-106.667-106.667s47.829-106.667 106.667-106.667c58.752 0 106.667 47.829 106.667 106.667s-47.872 106.667-106.667 106.667zM768 275.499c-5.163 0-10.325 1.835-14.421 5.632l-42.667 39.168c-8.704 7.979-9.259 21.461-1.28 30.123 8.021 8.661 21.504 9.173 30.123 1.237l27.776-25.6 156.203 153.045c8.405 8.107 21.931 8.021 30.165-0.341 8.235-8.277 8.107-22.059-0.256-30.165l-170.667-167.168c-4.181-3.883-9.6-5.931-14.976-5.931zM128 832c0-11.782-9.551-21.333-21.333-21.333s-21.333 9.551-21.333 21.333c0 11.782 9.551 21.333 21.333 21.333s21.333-9.551 21.333-21.333zM213.333 832c0-11.782-9.551-21.333-21.333-21.333s-21.333 9.551-21.333 21.333c0 11.782 9.551 21.333 21.333 21.333s21.333-9.551 21.333-21.333zM298.667 832c0-11.782-9.551-21.333-21.333-21.333s-21.333 9.551-21.333 21.333c0 11.782 9.551 21.333 21.333 21.333s21.333-9.551 21.333-21.333z" />
<glyph unicode="&#xe933;" glyph-name="aquarius" d="M661.76 565.589c-3.072 0-6.229 0.683-9.173 2.091-7.424 3.499-12.16 11.008-12.16 19.243v232.064l-306.56-248.789c-6.4-5.163-15.189-6.229-22.613-2.688-7.424 3.584-12.16 11.093-12.16 19.243v228.309l-263.723-243.883c-8.661-8.021-22.187-7.467-30.165 1.067-8.021 8.661-7.467 22.229 1.195 30.165l299.563 276.992c6.229 5.76 15.275 7.168 23.040 3.925 7.808-3.413 12.8-11.093 12.8-19.584v-232.107l306.645 248.789c6.315 5.12 15.104 6.229 22.571 2.688 7.424-3.584 12.117-11.093 12.117-19.243v-232.149l306.645 248.789c6.315 5.12 15.104 6.229 22.571 2.688 7.424-3.499 12.117-11.093 12.117-19.243v-276.267c0-11.733-9.557-21.333-21.333-21.333-11.691 0-21.333 9.6-21.333 21.333v231.424l-306.56-248.789c-3.925-3.072-8.661-4.736-13.483-4.736zM661.76 138.923c-3.072 0-6.229 0.683-9.173 2.091-7.424 3.499-12.16 11.008-12.16 19.243v232.064l-306.56-248.789c-6.4-5.163-15.189-6.229-22.613-2.688-7.424 3.584-12.16 11.093-12.16 19.243v228.352l-263.723-243.925c-8.661-8.021-22.187-7.467-30.165 1.067-8.021 8.661-7.467 22.229 1.195 30.165l299.563 276.992c6.229 5.76 15.275 7.168 23.040 3.925 7.808-3.413 12.8-11.093 12.8-19.584v-232.064l306.645 248.747c6.315 5.163 15.104 6.229 22.571 2.688 7.424-3.584 12.117-11.136 12.117-19.243v-232.107l306.645 248.747c6.315 5.163 15.104 6.272 22.571 2.688 7.424-3.499 12.117-11.136 12.117-19.243v-276.309c0-11.691-9.557-21.333-21.333-21.333-11.691 0-21.333 9.643-21.333 21.333v231.509l-306.56-248.789c-3.925-3.115-8.661-4.779-13.483-4.779z" />
<glyph unicode="&#xe934;" glyph-name="aquarius-2" d="M721.408 151.765c-1.323 0-2.731 0.171-4.181 0.427l-29.056 5.931c-98.048 20.096-301.995 61.653-465.451 61.653-42.624 0-80.128-2.816-111.488-8.491-6.827-0.981-13.867 0.981-18.773 5.931-111.915 111.019-132.949 404.736-0.299 541.867 3.755 3.84 8.832 6.229 14.208 6.4 141.269 7.424 436.821 74.965 606.293 150.955 8.619 3.84 18.773 1.579 24.917-5.589 124.843-145.92 125.525-573.44 1.237-750.037-3.968-5.717-10.539-9.045-17.408-9.045zM222.763 262.4c167.765 0 374.571-42.24 473.941-62.592l14.933-2.901c102.699 163.157 104.021 534.101 3.243 673.877-174.336-74.624-451.371-137.728-597.632-147.371-112.896-125.355-84.523-374.144-2.048-468.267 31.36 4.779 67.413 7.253 107.563 7.253zM721.408 151.765c-6.315 0-12.629 2.816-16.853 8.235-203.349 260.352-79.104 659.968 0.768 751.061 7.808 8.832 21.291 9.685 30.123 1.963 8.875-7.808 9.771-21.248 1.963-30.123-71.509-81.536-185.131-458.581 0.811-696.661 7.253-9.344 5.589-22.741-3.669-29.995-3.925-2.987-8.491-4.48-13.141-4.48zM504.704 611.499c-1.365 0-2.816 0.085-4.309 0.427-11.563 2.389-18.987 13.525-16.597 25.173 20.565 100.437 66.133 186.923 102.101 227.925 7.808 8.832 21.291 9.728 30.123 1.92 8.875-7.893 9.771-21.248 1.963-30.080-24.021-27.563-70.613-102.229-92.373-208.341-2.048-10.027-10.923-17.024-20.907-17.024zM909.355 105.771c-74.667 0-89.344 72.149-101.163 130.261-14.763 72.576-26.837 117.077-86.827 117.077-11.733 0-21.333 9.685-21.333 21.333 0 11.733 9.6 21.333 21.333 21.333 97.877 0 115.627-87.424 128.683-151.253 13.525-66.688 23.296-96.085 59.349-96.085 11.776 0 21.333-9.6 21.333-21.333s-9.515-21.333-21.376-21.333zM1002.197 222.165c-66.219 0-85.461 57.6-102.4 108.501-22.784 68.267-46.336 138.837-166.443 138.837-11.776 0-21.333 9.515-21.333 21.333 0 11.648 9.557 21.333 21.333 21.333 150.827 0 183.253-97.067 206.933-168.064 18.816-56.32 29.696-79.232 61.995-79.232 11.776 0 21.333-9.6 21.333-21.333-0.043-11.861-9.6-21.376-21.419-21.376z" />
<glyph unicode="&#xe935;" glyph-name="archery" d="M448 1.664c-11.733 0-21.333 9.6-21.333 21.333v978.005c0 11.733 9.6 21.333 21.333 21.333 209.067 0 385.749-233.771 385.749-510.336s-176.683-510.336-385.749-510.336zM469.333 978.645v-933.333c173.653 16.171 321.749 227.243 321.749 466.688s-148.096 450.517-321.749 466.645zM938.667 469.333h-725.333c-11.733 0-21.333 9.6-21.333 21.333s9.6 21.333 21.333 21.333h725.333c11.733 0 21.333-9.6 21.333-21.333s-9.6-21.333-21.333-21.333zM896 404.011c-4.011 0-8.064 1.109-11.648 3.499-9.771 6.4-12.587 19.669-6.229 29.483l34.944 53.547-34.816 52.309c-6.485 9.771-3.883 23.083 5.931 29.568s22.997 3.968 29.568-5.931l42.667-64c4.736-7.168 4.736-16.341 0.128-23.509l-42.667-65.323c-4.139-6.229-10.923-9.643-17.877-9.643zM170.667 404.011c-4.011 0-8.064 1.109-11.648 3.499-9.771 6.4-12.587 19.669-6.229 29.483l34.944 53.547-34.816 52.309c-6.485 9.771-3.883 23.083 5.931 29.568s22.997 3.968 29.568-5.931l42.667-64c4.736-7.168 4.736-16.341 0.128-23.509l-42.667-65.323c-4.139-6.229-10.923-9.643-17.877-9.643zM85.333 404.011c-4.011 0-8.064 1.109-11.648 3.499-9.771 6.4-12.587 19.669-6.229 29.483l34.944 53.547-34.816 52.309c-6.485 9.771-3.883 23.083 5.931 29.568s22.997 3.968 29.568-5.931l42.667-64c4.736-7.168 4.736-16.341 0.128-23.509l-42.667-65.323c-4.139-6.229-10.923-9.643-17.877-9.643z" />
<glyph unicode="&#xe936;" glyph-name="archery-2" d="M512 74.155c-241.877 0-438.656 196.779-438.656 438.656s196.779 438.613 438.656 438.613 438.656-196.693 438.656-438.571-196.779-438.699-438.656-438.699zM512 908.8c-218.368 0-395.989-177.621-395.989-395.947 0-218.283 177.621-395.904 395.989-395.904s395.989 177.621 395.989 395.904c0 218.325-177.621 395.947-395.989 395.947zM512 235.52c-152.917 0-277.333 124.416-277.333 277.333s124.416 277.333 277.333 277.333 277.333-124.416 277.333-277.333-124.416-277.333-277.333-277.333zM512 747.52c-129.365 0-234.667-105.301-234.667-234.667s105.301-234.667 234.667-234.667 234.667 105.301 234.667 234.667-105.301 234.667-234.667 234.667zM512 387.157c-69.291 0-125.653 56.363-125.653 125.653 0 69.248 56.363 125.568 125.653 125.568s125.653-56.32 125.653-125.568c0-69.248-56.363-125.653-125.653-125.653zM512 595.797c-45.739 0-82.987-37.205-82.987-82.944 0-45.653 37.248-82.901 82.987-82.901s82.987 37.248 82.987 82.901c0 45.739-37.248 82.944-82.987 82.944zM512 491.52c-5.931 0-11.733 2.517-16 7.211l-368.427 417.28c-7.808 8.832-6.955 22.229 1.877 30.080 8.789 7.808 22.315 6.912 30.123-1.835l368.427-417.28c7.851-8.832 6.955-22.272-1.877-30.123-4.053-3.584-9.088-5.333-14.123-5.333zM143.573 908.8h-48.896c-11.733 0-21.333 9.557-21.333 21.333s9.6 21.333 21.333 21.333h27.563v29.184c0 11.776 9.557 21.333 21.333 21.333 11.733 0 21.333-9.557 21.333-21.333v-50.517c0-11.819-9.472-21.333-21.333-21.333zM146.816 22.016c-5.504 0-10.923 2.091-15.104 6.229-8.277 8.235-8.277 21.845 0 30.165l104.32 104.235c8.277 8.235 21.845 8.235 30.165 0 8.277-8.235 8.277-21.931 0-30.165l-104.32-104.235c-4.139-4.181-9.643-6.229-15.061-6.229zM877.184 22.016c-5.419 0-10.923 2.091-15.104 6.229l-104.32 104.235c-8.32 8.235-8.32 21.931 0 30.165s21.845 8.235 30.165 0l104.32-104.235c8.32-8.32 8.32-21.931 0-30.165-4.181-4.181-9.557-6.229-15.061-6.229z" />
<glyph unicode="&#xe937;" glyph-name="argentina" d="M21.333 21.333c-11.776 0-21.333 9.6-21.333 21.333v938.667c0 11.776 9.557 21.333 21.333 21.333s21.333-9.557 21.333-21.333v-938.667c0-11.733-9.557-21.333-21.333-21.333zM1002.667 256h-981.333c-11.776 0-21.333 9.6-21.333 21.333v682.667c0 11.776 9.557 21.333 21.333 21.333h981.333c11.733 0 21.333-9.557 21.333-21.333v-682.667c0-11.733-9.6-21.333-21.333-21.333zM42.667 298.667h938.667v640h-938.667v-640zM981.333 768h-938.667c-11.776 0-21.333 9.557-21.333 21.333s9.557 21.333 21.333 21.333h938.667c11.733 0 21.333-9.557 21.333-21.333s-9.6-21.333-21.333-21.333zM981.333 426.667h-938.667c-11.776 0-21.333 9.6-21.333 21.333s9.557 21.333 21.333 21.333h938.667c11.733 0 21.333-9.6 21.333-21.333s-9.6-21.333-21.333-21.333zM512 512c-58.795 0-106.667 47.872-106.667 106.667s47.872 106.667 106.667 106.667 106.667-47.872 106.667-106.667-47.872-106.667-106.667-106.667zM512 682.667c-35.285 0-64-28.715-64-64s28.715-64 64-64 64 28.715 64 64-28.715 64-64 64z" />
<glyph unicode="&#xe938;" glyph-name="aries" d="M512.043 89.771c-11.477 0-20.907 9.088-21.333 20.48-6.059 165.504-60.203 623.019-235.605 750.336-42.496 30.848-87.936 38.784-139.051 24.021-38.784-11.093-65.28-44.8-70.869-89.899-5.931-47.872 13.269-94.848 46.677-114.091 10.197-5.973 13.696-18.859 7.808-29.227-5.931-10.027-18.944-13.525-29.141-7.851-48.555 27.989-75.819 90.795-67.712 156.245 7.765 62.891 45.653 109.824 101.504 125.696 63.701 18.219 122.837 7.979 175.787-30.549 130.859-94.976 200.235-347.008 231.893-560.597 31.659 213.589 101.035 465.621 231.936 560.597 52.907 38.4 112.128 48.768 175.787 30.549 55.851-15.915 93.739-62.976 101.504-125.696 8.021-65.408-19.157-128.256-67.712-156.245-10.197-5.931-23.296-2.432-29.184 7.893-5.888 10.112-2.389 23.253 7.851 29.227 33.365 19.328 52.565 66.261 46.72 114.091-5.589 45.269-32.085 78.976-70.912 89.899-51.157 14.635-96.64 6.699-139.008-24.021-175.445-127.317-229.589-584.875-235.648-750.336-0.427-11.477-9.771-20.523-21.291-20.523z" />
<glyph unicode="&#xe939;" glyph-name="aries-2" horiz-adv-x="1042" d="M741.717 0c-0.299 0.085-0.555 0.085-0.896 0-121.088 0-489.643 0-489.643 381.355 0 162.56 99.84 250.667 172.715 315.307 8.704 7.765 17.024 15.104 24.832 22.229-34.219 44.117-32.512 81.707-26.795 122.155 1.152 8.021 6.869 14.891 14.677 17.195 7.851 2.56 16.341 0.341 21.973-5.675 23.808-25.173 104.363-50.773 159.701-50.773 5.888 0 11.477-2.475 15.403-6.528 21.76-22.912 56.747-53.248 109.696-53.248 23.808 0 49.408 6.144 76.373 18.091 6.187 2.688 13.269 2.475 19.072-0.896s9.813-9.131 10.752-15.787c10.709-79.701 35.84-266.325 175.403-292.565 5.76-0.896 10.752-4.437 13.995-9.344 3.115-4.821 4.267-10.88 2.816-16.597-19.029-81.152-81.536-146.603-134.955-175.104-5.163-2.688-11.136-3.243-16.725-1.493-47.787 15.403-126.848 37.76-161.92 42.965-26.155-18.475-62.763-61.44-64.597-113.408-1.664-48.896 27.264-94.976 86.016-136.661 7.808-3.2 13.184-10.795 13.184-19.669 0.256-12.032-9.344-21.547-21.077-21.547zM461.483 798.677c0.896-21.973 8.576-41.771 32.171-66.859 7.893-8.363 7.723-21.504-0.427-29.611-11.819-11.819-25.856-24.235-40.96-37.76-70.528-62.336-158.251-139.861-158.251-283.221 0-272.555 205.525-328.576 386.432-337.195-49.749 50.645-60.245 99.669-59.093 135.083 2.432 68.693 48.896 127.189 91.093 152.448 3.968 2.517 8.32 3.499 12.971 2.859 36.053-3.2 123.861-28.672 169.259-42.923 37.504 22.656 80.555 67.712 100.053 122.581-135.637 41.173-169.771 203.349-183.509 296.491-23.253-7.68-45.824-11.563-67.627-11.563-69.035 0-114.347 39.936-134.357 60.075-46.123 2.005-106.453 17.323-147.755 39.595zM554.112 669.397c-38.912 0-79.019 17.067-92.715 34.517-7.296 9.173-5.803 22.357 3.371 29.696 9.131 7.424 22.528 5.973 29.952-3.157 8.064-9.856 62.805-28.501 88.576-11.392 9.771 6.443 23.040 3.925 29.525-6.101 6.4-9.771 3.84-23.083-6.101-29.483-14.976-9.984-33.621-14.080-52.608-14.080zM723.371 291.925c-88.661 0-162.347 36.181-197.035 96.427-31.104 54.229-27.563 119.253 9.771 183.765 5.931 10.069 18.944 13.483 29.141 7.851 10.112-6.059 13.611-18.944 7.723-29.269-29.355-50.688-32.853-100.48-9.771-140.843 27.093-47.104 86.912-75.008 160.128-75.008 11.691 0 21.333-9.728 21.333-21.333 0-11.861-9.472-21.589-21.291-21.589zM950.443 287.403c-6.571 0-13.269 3.072-17.323 8.917-4.181 5.931-37.077 34.176-93.909 26.496-11.819-1.323-22.315 6.741-23.936 18.517-1.579 11.563 6.613 22.315 18.432 24.021 68.565 8.576 118.571-22.229 134.229-44.075 6.741-9.685 4.523-22.869-4.992-29.568-3.755-3.029-8.107-4.309-12.501-4.309zM154.752 184.704c-6.059 0-12.032 2.645-16.213 7.467-219.051 256.085-125.995 501.419-75.861 594.987 75.989 141.568 227.157 236.843 376.192 236.843 202.667 0 392.576-34.176 410.965-282.069 0.725-8.789-4.224-17.067-12.16-20.821-80.939-38.272-137.131-31.147-221.611 31.659-3.584 2.688-6.229 6.315-7.68 10.581-22.997 71.68-82.048 112.725-162.091 112.725-91.563 0-186.837-52.949-236.928-131.797-58.283-91.648-140.757-320.171-35.627-528.597 4.864-9.685 1.792-21.419-7.211-27.392-3.627-2.475-7.723-3.584-11.776-3.584zM438.827 981.333c-111.317 0-259.157-66.347-338.603-214.229-46.549-86.869-99.456-244.309-12.373-422.443-28.715 177.408 36.352 345.173 85.504 422.443 57.6 90.667 167.253 151.723 272.896 151.723 95.872 0 170.24-50.645 200.405-135.68 63.317-45.824 101.632-52.48 159.104-29.355-20.395 188.971-155.904 227.541-366.933 227.541zM761.131 587.989h-42.667c-11.733 0-21.333 9.6-21.333 21.333s9.6 21.333 21.333 21.333h42.667c11.733 0 21.333-9.6 21.333-21.333s-9.6-21.333-21.333-21.333z" />
<glyph unicode="&#xe93a;" glyph-name="army-key" d="M362.667 426.667h-341.333c-11.776 0-21.333 9.557-21.333 21.333v128c0 11.776 9.557 21.333 21.333 21.333h341.333c11.776 0 21.333-9.557 21.333-21.333v-128c0-11.776-9.557-21.333-21.333-21.333zM42.667 469.333h298.667v85.333h-298.667v-85.333zM874.667 426.667h-512c-11.776 0-21.333 9.557-21.333 21.333v128c0 11.776 9.557 21.333 21.333 21.333h640c11.733 0 21.333-9.557 21.333-21.333 0-82.347-66.987-149.333-149.333-149.333zM384 469.333h490.667c51.541 0 94.592 36.693 104.533 85.333h-595.2v-85.333zM21.333 362.667c-11.776 0-21.333 9.557-21.333 21.333v256c0 11.776 9.557 21.333 21.333 21.333s21.333-9.557 21.333-21.333v-256c0-11.776-9.557-21.333-21.333-21.333zM362.667 362.667c-11.776 0-21.333 9.557-21.333 21.333v256c0 11.776 9.557 21.333 21.333 21.333s21.333-9.557 21.333-21.333v-256c0-11.776-9.557-21.333-21.333-21.333zM106.667 448c-11.776 0-21.333 9.557-21.333 21.333v85.333c0 11.776 9.557 21.333 21.333 21.333s21.333-9.557 21.333-21.333v-85.333c0-11.776-9.557-21.333-21.333-21.333zM192 448c-11.776 0-21.333 9.557-21.333 21.333v85.333c0 11.776 9.557 21.333 21.333 21.333s21.333-9.557 21.333-21.333v-85.333c0-11.776-9.557-21.333-21.333-21.333zM277.333 448c-11.776 0-21.333 9.557-21.333 21.333v85.333c0 11.776 9.557 21.333 21.333 21.333s21.333-9.557 21.333-21.333v-85.333c0-11.776-9.557-21.333-21.333-21.333z" />
</font>
</defs>
</svg>
